Loading...

The Small Faces - The Essential Collection (2005)

Posted By : v3122 | Date : 30 Jun 2010 11:44:35 | Comments : 6 |
|


The Small Faces - The Essential Collection

The Small Faces - The Essential Collection (2005)
2CD | Rock/Psychedelic/Mod/Freakbeat | EAC Rip | Flac (Image) + Cue + Log | MP3 CBR 320Kbps
Covers Included | METROCD561 | ~670 + 252 Mb | RS.com + FileServe

Any compilation of the Small Faces is going to have it's work cut out trying to document the best work of the best Mod band. Forget The Who, good band though they were; these boys were the epitome of what Mod stood for, the sharp clothes, the cool, the drugs and most importantly the music.

These themes are constantly apparent throughout their work, for example the overt drug references in The Universal and Here Comes The Nice are hilarious when you think of how they went largely unnoticed in the 60s - when singer Steve Marriott croons "He knows what I want, he's got what I need, he's always there when I need some speed" about his dealer, you can't help but smile.
There's what seems like a million brilliant tunes here, most of them Steve Marriott and bassist Ronnie Lane compositions and a few well-chosen covers to boot. Red Balloon and Every Little Bit Hurts are two of the better covers, the latter a soul classic and sung well enough to stop your heart by Marriott, who simply had the best white soul voice of any man before or since. But the covers are footnotes really; when you hear the power of a stomper like Tin Soldier - one of the greatest songs ever written - then you'll know what I mean as it builds to a relentless crescendo with Marriott's voice soaring as he hits the notes with facile ease and Kenney Jones' crashing drums proving that he was every bit as accomplished as his more celebrated contemporary Keith Moon (as a brief aside, isn't it amazing how people equate a rock n' roll lifestyle with talent - Pete Doherty anyone?). Then there's the cock-er-ney music hall pastiche of Happy Days Toy Town and Rene which don't so much give a nod to the band's London roots as run screaming toward then jump on them; Stanley Unwin pops up on these with his inimitable semi-nonsense commentary for an extra surreal feel. You'll think "WTF?" when you hear them, but you 'll also laugh.

You'll be surprised by how many of these you've heard without ever knowing what the songs were actually called; there's the out-and-out rock of Wham Bam Thank You Mam, which sounds hugely familiar even if you haven't heard it before, the folksy tenderness of The Autumn Stone and the Mod anthem Rollin' Over among many others, all of them infused with the soul and nonchalant cool that seemed to come so easily to the Small Faces. In fact, there's only one omission glaring in its absence, the wondrous All Or Nothing, which surely should have been included here at the expense of the Ian MacLagan composition Up The Wooden Hills To Bedfordshire, a song I can only surmise was allowed to be recorded to either stop Ian going in the cream puff or because it sounded a lot better on drugs. Could have been both, I suppose.
Regardless, my advice to you is this: buy this, dig it out on a sunny day, get the beers and smoke out, bring your friends round then crank it up enough to make your neighbours stop speaking to you. Sound.

Review from internet

The Small Faces

The Small Faces:
Small Faces were an influential British mod/psychedelic band of the 1960s, led by Steve Marriott and Ronnie Lane with Kenney Jones and Ian McLagan (who replaced original organist Jimmy Winston). The Small Faces were all genuine East End mods and they ranked second to The Who as Britain’s premier Mod band. They were signed to Decca records initially and enjoyed major success across Europe between 1965 and 1967 with classic singles like “All Or Nothing” and “Sha-La-La-La-Lee” before moving to a new label.

By late 1967, the band had felt constricted financially & creatively by manager Don Arden (father of Sharon Osbourne), and were lured by Rolling Stones’ publicist Andrew Loog Oldham into signing with his new Immediate label. They soon recorded more expansive psychedelic sounding material including hit pop tunes like “Lazy Sunday” which was included with their UK number one classic concept album Ogdens Nut Gone Flake and “Itchycoo Park” which was their only stateside charting single.


The demise of the Small Faces arrived on New Years Eve 1968, when Steve Marriott walked off stage at The Alexandra Palace in London. Marriott felt that despite the success of the group, he was still not being taken seriously as a musician. He went on to achieve major status in the U.S.A with Peter Frampton in Humble Pie. The others continued as the Faces, opting to drop the “Small” after one LP as new recruits Rod Stewart and Ronnie Wood towered above their new band mates. Drummer Kenney Jones later joined The Who after the death of their drummer Keith Moon. As years went on, Marriott kept recording various lineups as Humble Pie but became somewhat of a caricature and casualty of rock excess. Tragically, Steve Marriott died in a house fire in 1991 and Ronnie Lane followed him in 1997 after a long battle with Multiple Sclerosis. Keyboardist Ian McLagan has continued to tour and record with his own band as well as with artists like Billy Bragg, The New Barbarians ( a group composed of Ian, Ron Wood, Keith Richards, Stanley Clarke, and Billy Cobham), and The Rolling Stones. According to announcements at the shows on the New Barbarians tour, the proceeds of the live gigs were going to pay Ronnie Lane’s medical expenses associated with Ronnie’s struggle with Multiple Sclerosis.

The Small Faces remain one of British rock’s most important legacy acts, with their membership having links to so many other acts. Amongst the many bands they influenced were The Jam, Ramones, Oasis and X.

The Small Faces - The Essential Collection (2005) - CD1:

The Small Faces - The Essential Collection - CD1

Tracklist:

1. Here Comes The Nice
2. I Can't Make It
3. Itchycoo Park
4. Tin Soldier
5. I Feel Much Better
6. Lazy Sunday
7. Wham Bam Thankyou Man
8. Wide Eyed Girl On The Wall
9. Something I Want To Tell You
10. Things Are Going To Get Better
11. Donkey Rides Penny A Glass
12. Green Circles
13. Tell Me Have You Ever Seen Me
14. Long Agos And Worlds Apart
15. Don't Burst My Bubble
16. I'm Only Dreaming
17. Up The Wooden Hills To Bedfordshire
18. Ogden's Nut Gone Flake

EAC Log
Exact Audio Copy V0.99 prebeta 4 from 23. January 2008

EAC extraction logfile from 12. November 2009, 17:58

The Small Faces / The Essential Collection

Used drive : TSSTcorpCDDVDW SH-S202J Adapter: 1 ID: 1

Read mode : Secure
Utilize accurate stream : Yes
Defeat audio cache : Yes
Make use of C2 pointers : No

Read offset correction : 6
Overread into Lead-In and Lead-Out : No
Fill up missing offset samples with silence : Yes
Delete leading and trailing silent blocks : No
Null samples used in CRC calculations : Yes
Used interface : Native Win32 interface for Win NT & 2000

Used output format : Internal WAV Routines
Sample format : 44.100 Hz; 16 Bit; Stereo


TOC of the extracted CD

Track | Start | Length | Start sector | End sector
---------------------------------------------------------
1 | 0:00.00 | 3:04.63 | 0 | 13862
2 | 3:04.63 | 2:11.53 | 13863 | 23740
3 | 5:16.41 | 2:53.22 | 23741 | 36737
4 | 8:09.63 | 3:24.05 | 36738 | 52042
5 | 11:33.68 | 3:58.12 | 52043 | 69904
6 | 15:32.05 | 3:11.05 | 69905 | 84234
7 | 18:43.10 | 3:22.34 | 84235 | 99418
8 | 22:05.44 | 2:50.23 | 99419 | 112191
9 | 24:55.67 | 2:11.23 | 112192 | 122039
10 | 27:07.15 | 2:39.54 | 122040 | 134018
11 | 29:46.69 | 2:49.63 | 134019 | 146756
12 | 32:36.57 | 2:46.63 | 146757 | 159269
13 | 35:23.45 | 2:15.51 | 159270 | 169445
14 | 37:39.21 | 2:37.40 | 169446 | 181260
15 | 40:16.61 | 2:26.22 | 181261 | 192232
16 | 42:43.08 | 2:26.12 | 192233 | 203194
17 | 45:09.20 | 2:05.67 | 203195 | 212636
18 | 47:15.12 | 2:28.51 | 212637 | 223787


Range status and errors

Selected range

Filename E:\РОЗДАЧА\The Small Faces - The Essential Collection.wav

Peak level 99.9 %
Range quality 100.0 %
Test CRC C9B68627
Copy CRC C9B68627
Copy OK

No errors occurred

End of status report

Audiochecker Log
AUDIOCHECKER v2.0 beta (build 457) - by Dester - opdester@freemail.hu
~~~~~~~~~~~~~~~~~~~~~~~~~~~~~~~~~~
-=== DO NOT EDIT THIS FILE! ===-

Path: ...\The Small Faces - The Essential Collection

01 -=- The Small Faces - The Essential Collection 2.flac -=- CDDA (100%)
02 -=- The Small Faces - The Essential Collection.flac -=- CDDA (100%)

Summary 100,00% CDDA

228149364

The Small Faces - The Essential Collection (2005) - CD2:

The Small Faces - The Essential Collection - CD2

Tracklist:

1. Happiness Stan
2. Rollin' Over
3. Hungry Intruder
4. Journey
5. Mad John
6. Happy Days Toy Town
7. Get Yourself Together
8. Universal
9. Red Balloon
10. Eddie's Dreaming
11. Autumn Stone
12. Talk To You
13. All Our Yesterdays
14. Happy Boys Happy
15. My Way Of Giving
16. Rene
17. Just Passing
18. Afterglow (Of Your Love)

EAC Log
Exact Audio Copy V0.99 prebeta 4 from 23. January 2008

EAC extraction logfile from 13. November 2009, 17:31

The Small Faces / The Essential Collection 2

Used drive : TSSTcorpCDDVDW SH-S202J Adapter: 1 ID: 1

Read mode : Secure
Utilize accurate stream : Yes
Defeat audio cache : Yes
Make use of C2 pointers : No

Read offset correction : 6
Overread into Lead-In and Lead-Out : No
Fill up missing offset samples with silence : Yes
Delete leading and trailing silent blocks : No
Null samples used in CRC calculations : Yes
Used interface : Native Win32 interface for Win NT & 2000

Used output format : Internal WAV Routines
Sample format : 44.100 Hz; 16 Bit; Stereo


TOC of the extracted CD

Track | Start | Length | Start sector | End sector
---------------------------------------------------------
1 | 0:00.00 | 2:38.19 | 0 | 11868
2 | 2:38.19 | 2:49.51 | 11869 | 24594
3 | 5:27.70 | 2:15.37 | 24595 | 34756
4 | 7:43.32 | 4:13.06 | 34757 | 53737
5 | 11:56.38 | 4:15.28 | 53738 | 72890
6 | 16:11.66 | 2:54.08 | 72891 | 85948
7 | 19:05.74 | 2:18.35 | 85949 | 96333
8 | 21:24.34 | 2:46.20 | 96334 | 108803
9 | 24:10.54 | 4:16.00 | 108804 | 128003
10 | 28:26.54 | 2:55.42 | 128004 | 141170
11 | 31:22.21 | 4:02.48 | 141171 | 159368
12 | 35:24.69 | 2:08.74 | 159369 | 169042
13 | 37:33.68 | 1:54.15 | 169043 | 177607
14 | 39:28.08 | 1:37.56 | 177608 | 184938
15 | 41:05.64 | 2:00.36 | 184939 | 193974
16 | 43:06.25 | 4:31.35 | 193975 | 214334
17 | 47:37.60 | 1:16.20 | 214335 | 220054
18 | 48:54.05 | 3:32.05 | 220055 | 235959


Range status and errors

Selected range

Filename E:\РОЗДАЧА\The Small Faces - The Essential Collection 2.wav

Peak level 98.8 %
Range quality 100.0 %
Test CRC 07785E20
Copy CRC 07785E20
Copy OK

No errors occurred

End of status report

Audiochecker Log
AUDIOCHECKER v2.0 beta (build 457) - by Dester - opdester@freemail.hu
~~~~~~~~~~~~~~~~~~~~~~~~~~~~~~~~~~
-=== DO NOT EDIT THIS FILE! ===-

Path: ...\The Small Faces - The Essential Collection

01 -=- The Small Faces - The Essential Collection 2.flac -=- CDDA (100%)
02 -=- The Small Faces - The Essential Collection.flac -=- CDDA (100%)

Summary 100,00% CDDA

228149364


Download The Small Faces - The Essential Collection (2005):

RS.com - All links:
The Small Faces - The Essential Collection - All RS and FS links

FileServe - lossless:
The Small Faces - The Essential Collection - CD1
The Small Faces - The Essential Collection - CD2

FileServe - MP3 CBR320:
The Small Faces - The Essential Collection - CD1
The Small Faces - The Essential Collection - CD2

pass:
www.avaxhome.ws

In case you encounter dead links, please send me a private message.

All thanks go to Vasil 61

ADVERTISING » Very Fast Download! « ADVERTISING


Posted By: Felipe Vervena Date: 30 Jun 2010 11:49:29
Thanks a lot - Great music !
Posted By: wersollsschonsein Date: 30 Jun 2010 18:52:14
Cheers from Ireland.
Posted By: Packor Date: 30 Jun 2010 23:05:25
Thank you very much !
Posted By: diddlycrap Date: 03 Jul 2010 01:19:57
Thanks for this from Australia
Posted By: GRMarj Date: 14 Jul 2010 03:22:40
Ditto diddlycrap!
Posted By: kwork Date: 18 Jul 2010 06:05:44
Thank you very much!