Loading...

The Monkees - Music Box (2001) [4CD Box Set, Rhino R2 76706]

Posted By : v3122 | Date : 22 Jul 2011 09:37:58 | Comments : 10 |
|


The Monkees - Music Box (2001)

The Monkees - Music Box (2001)
Rock, Pop | EAC Rip | Flac(Image) + Cue + Log & iPod M4A(Tracks) & MP3 CBR 320Kbps
Rhino, R2 76706 | ~ 1775 or 1781 or 632 Mb | FSonic, FServe, Uploaded, Uploadstation
Scans (JPG) -> 147 Mb | Scans (Tiff, 600dpi) -> 2989 Mb

The Monkees

It's hard not to wonder why the four-disc Music Box even exists. After all, Rhino has not only released definitive reissues of all of the Monkees' studio albums, complete with bonus tracks, but the label has a series devoted to rarities (Missing Links), a single-disc greatest hits album, a double-disc anthology, and another four-disc box, Listen to the Band, which is excellent. So where does that leave Music Box? Well, it is "reconfigured" into a booklike box, which must appeal to somebody, but more importantly, it tries to pull off a nifty trick -- providing an exhaustive overview for the casual listener, while filling in the holes for those serious fans who only have the proper reissued albums. On both counts, this works well. Let's get the basics out of the way: This sounds great, and Andrew Sandoval's liner notes are terrific, particularly the song-by-song breakdown that not only includes the Monkees' reflections, but also those of various producers and songwriters. Then, there's the song selection, which is impeccable for the first three discs, which devote a year each to 1966, 1967, and 1968, blending hits with rarities, album versions, and alternate takes, never once seeming like a sop to collectors. The fourth disc is a little more problematic, just because it spans from 1969 to 1996, containing reunion tracks that some fans may rather not hear, but it still has more than enough minor gems that will please the dedicated. And, when it gets right down to it, Music Box succeeds on two counts: Everyone who needs to plug in gaps will be satisfied with this (plus they'll like the fine flow of the songs) and, more importantly, this is a wonderful choice for anyone looking for a good, thorough overview of the Monkees' best, delving far deeper than the hits. It doesn't really trump Listen to the Band, but it's nearly an equal.

by Stephen Thomas Erlewine, AMG

The Monkees - Music Box (2001) [4CD Box set, Rhino R2 76706]:

The Monkees - Music Box (2001) - cd1

Tracklist CD1:

01 - (Theme From) The Monkees
02 - I Wanna Be Free (Fast Version)
03 - Let's Dance On
04 - Last Train To Clarksville
05 - Take A Giant Step
06 - All The King's Horses
07 - Saturday's Child
08 - Papa Gene's Blues
09 - I Wanna Be Free (Album Version)
10 - Sweet Young Thing
11 - Gonna Buy Me A Dog
12 - I Don't Think You Know Me (First Recorded Version)
13 - I'm A Believer
14 - (I'm Not Your) Steppin' Stone
15 - She
16 - Mary, Mary
17 - Your Auntie Grizelda
18 - Of You (Previously Unissued Mix)
19 - Look Out (Here Comes Tomorrow) (Previously Unissued Extended Version)
20 - The Kind Of Girl I Could Love
21 - Sometime In The Morning
22 - When Love Comes Knockin' (At Your Door)
23 - Do Not Ask For Love (First Recorded Version)
24 - Valleri (First Recorded Version)
25 - I'll Be Back Upon My Feet (First Recorded Version)

EAC Log
Exact Audio Copy V0.99 prebeta 5 from 4. May 2009

Отчёт EAC об извлечении, выполненном 14. мая 2010, 13:22

The Monkees / Music Box [CD 01]

Дисковод: TSSTcorpCDDVDW SH-S223C Adapter: 3 ID: 0

Режим чтения : Достоверность
Использование точного потока : Да
Отключение кэша аудио : Да
Использование указателей C2 : Нет

Коррекция смещения при чтении : 697
Способность читать области Lead-in и Lead-out : Нет
Заполнение пропущенных сэмплов тишиной : Да
Удаление блоков с тишиной в начале и конце : Нет
При вычислениях CRC использовались нулевые сэмплы : Да
Интерфейс : Встроенный Win32-интерфейс для Win NT/2000

Выходной формат : Пользовательский кодировщик
Выбранный битрейт : 1024 kBit/s
Качество : Высокий
Добавление ID3-тэга : Нет
Утилита сжатия : C:\Program Files (x86)\Exact Audio Copy\Flac\flac.exe
Дополнительные параметры : -6 -V -T "ARTIST=%a" -T "TITLE=%t" -T "ALBUM=%g" -T "DATE=%y" -T "TRACKNUMBER=%n" -T "GENRE=%m" -T "COMMENT=%e" %s -o %d


TOC извлечённого CD

Трек | Старт | Длительность | Начальный сектор | Конечный сектор
---------------------------------------------------------------------
1 | 0:00.00 | 2:19.57 | 0 | 10481
2 | 2:19.57 | 2:47.38 | 10482 | 23044
3 | 5:07.20 | 2:30.72 | 23045 | 34366
4 | 7:38.17 | 2:46.43 | 34367 | 46859
5 | 10:24.60 | 2:33.32 | 46860 | 58366
6 | 12:58.17 | 2:16.55 | 58367 | 68621
7 | 15:14.72 | 2:43.35 | 68622 | 80881
8 | 17:58.32 | 1:59.58 | 80882 | 89864
9 | 19:58.15 | 2:24.65 | 89865 | 100729
10 | 22:23.05 | 1:56.67 | 100730 | 109496
11 | 24:19.72 | 2:41.33 | 109497 | 121604
12 | 27:01.30 | 2:16.55 | 121605 | 131859
13 | 29:18.10 | 2:46.42 | 131860 | 144351
14 | 32:04.52 | 2:19.30 | 144352 | 154806
15 | 34:24.07 | 2:39.40 | 154807 | 166771
16 | 37:03.47 | 2:17.15 | 166772 | 177061
17 | 39:20.62 | 2:28.68 | 177062 | 188229
18 | 41:49.55 | 1:58.17 | 188230 | 197096
19 | 43:47.72 | 2:48.33 | 197097 | 209729
20 | 46:36.30 | 1:53.17 | 209730 | 218221
21 | 48:29.47 | 2:28.70 | 218222 | 229391
22 | 50:58.42 | 1:48.40 | 229392 | 237531
23 | 52:47.07 | 3:00.00 | 237532 | 251031
24 | 55:47.07 | 2:32.55 | 251032 | 262486
25 | 58:19.62 | 2:35.60 | 262487 | 274171


Характеристики диапазона извлечения и сообщения об ошибках

Выбранный диапазон

Имя файла C:\Users\Public\Music\Sample Music\Monkees, The\2001.02 · Music Box [4CD]\CD 01\The Monkees - Music Box [CD 01].wav

Пиковый уровень 97.2 %
Качество диапазона 100.0 %
CRC копии B4B83472
Копирование... OK

Ошибок не произошло


AccurateRip: сводка

Трек 1 точное извлечение (доверие 2) [7C788FF5]
Трек 2 точное извлечение (доверие 2) [DF61B5E2]
Трек 3 точное извлечение (доверие 2) [82055767]
Трек 4 точное извлечение (доверие 2) [BED73CB9]
Трек 5 точное извлечение (доверие 2) [E8E05C39]
Трек 6 точное извлечение (доверие 2) [9ECB1BF2]
Трек 7 точное извлечение (доверие 2) [CC243D00]
Трек 8 точное извлечение (доверие 2) [52650949]
Трек 9 точное извлечение (доверие 2) [230FDA8F]
Трек 10 точное извлечение (доверие 2) [2618FF83]
Трек 11 точное извлечение (доверие 2) [FEA74B97]
Трек 12 точное извлечение (доверие 2) [A0B51181]
Трек 13 точное извлечение (доверие 2) [C7EA7EA9]
Трек 14 точное извлечение (доверие 2) [D3CEA517]
Трек 15 точное извлечение (доверие 2) [DA278701]
Трек 16 точное извлечение (доверие 2) [B8E80FD8]
Трек 17 точное извлечение (доверие 2) [79C96C97]
Трек 18 точное извлечение (доверие 2) [06206439]
Трек 19 точное извлечение (доверие 2) [B1FF3AAD]
Трек 20 точное извлечение (доверие 2) [5DD682E9]
Трек 21 точное извлечение (доверие 2) [23057E64]
Трек 22 точное извлечение (доверие 2) [23DDA3FB]
Трек 23 точное извлечение (доверие 2) [1B242EE7]
Трек 24 точное извлечение (доверие 2) [2635E8F9]
Трек 25 точное извлечение (доверие 2) [6DB83CB4]

Все треки извлечены точно

Конец отчёта

Audiochecker Log
AUDIOCHECKER v2.0 beta (build 457) - by Dester - opdester@freemail.hu
~~~~~~~~~~~~~~~~~~~~~~~~~~~~~~~~~~
-=== DO NOT EDIT THIS FILE! ===-

Path: ...\2001 - Music Box [CD 01]

1 -=- The Monkees - Music Box [CD 01].flac -=- CDDA (99%)

177156324

Accurip(CUETools 1.9.5)
Verification date: 13.07.2011 5:59:04]
[Disc ID: 0036bbfd-03d4fe7f-3e0e4719]
Track [ CRC ] Status
01 [7c788ff5] (05/08) Accurately ripped as in pressing(s) #1
02 [df61b5e2] (05/08) Accurately ripped as in pressing(s) #1
03 [82055767] (05/08) Accurately ripped as in pressing(s) #1
04 [bed73cb9] (05/08) Accurately ripped as in pressing(s) #1
05 [e8e05c39] (05/08) Accurately ripped as in pressing(s) #1
06 [9ecb1bf2] (05/08) Accurately ripped as in pressing(s) #1
07 [cc243d00] (05/08) Accurately ripped as in pressing(s) #1
08 [52650949] (05/08) Accurately ripped as in pressing(s) #1
09 [230fda8f] (05/08) Accurately ripped as in pressing(s) #1
10 [2618ff83] (05/08) Accurately ripped as in pressing(s) #1
11 [fea74b97] (05/08) Accurately ripped as in pressing(s) #1
12 [a0b51181] (05/08) Accurately ripped as in pressing(s) #1
13 [c7ea7ea9] (05/08) Accurately ripped as in pressing(s) #1
14 [d3cea517] (05/08) Accurately ripped as in pressing(s) #1
15 [da278701] (05/08) Accurately ripped as in pressing(s) #1
16 [b8e80fd8] (05/08) Accurately ripped as in pressing(s) #1
17 [79c96c97] (05/08) Accurately ripped as in pressing(s) #1
18 [06206439] (05/08) Accurately ripped as in pressing(s) #1
19 [b1ff3aad] (05/08) Accurately ripped as in pressing(s) #1
20 [5dd682e9] (05/08) Accurately ripped as in pressing(s) #1
21 [23057e64] (05/08) Accurately ripped as in pressing(s) #1
22 [23dda3fb] (05/08) Accurately ripped as in pressing(s) #1
23 [1b242ee7] (04/07) Accurately ripped as in pressing(s) #1
24 [2635e8f9] (04/07) Accurately ripped as in pressing(s) #1
25 [6db83cb4] (03/06) Accurately ripped as in pressing(s) #2
Offsetted by -664:
01 [2f13e98c] (03/08) Accurately ripped as in pressing(s) #2
02 [9a416923] (03/08) Accurately ripped as in pressing(s) #2
03 [bdb3afcf] (03/08) Accurately ripped as in pressing(s) #2
04 [cf124f69] (03/08) Accurately ripped as in pressing(s) #2
05 [75bce8d9] (03/08) Accurately ripped as in pressing(s) #2
06 [76523962] (03/08) Accurately ripped as in pressing(s) #2
07 [43705d18] (03/08) Accurately ripped as in pressing(s) #2
08 [f0ed7729] (03/08) Accurately ripped as in pressing(s) #2
09 [5cc6e01f] (03/08) Accurately ripped as in pressing(s) #2
10 [4f317d13] (03/08) Accurately ripped as in pressing(s) #2
11 [ccda4e77] (03/08) Accurately ripped as in pressing(s) #2
12 [94b709a9] (03/08) Accurately ripped as in pressing(s) #2
13 [d1a41dd9] (03/08) Accurately ripped as in pressing(s) #2
14 [49cb80a7] (03/08) Accurately ripped as in pressing(s) #2
15 [6c42bd61] (03/08) Accurately ripped as in pressing(s) #2
16 [cc279008] (03/08) Accurately ripped as in pressing(s) #2
17 [5fffa38f] (03/08) Accurately ripped as in pressing(s) #2
18 [2dd883c9] (03/08) Accurately ripped as in pressing(s) #2
19 [00c0bb05] (03/08) Accurately ripped as in pressing(s) #2
20 [450f2fa9] (03/08) Accurately ripped as in pressing(s) #2
21 [2415d71c] (03/08) Accurately ripped as in pressing(s) #2
22 [95af46f3] (03/08) Accurately ripped as in pressing(s) #2
23 [6256902f] (03/07) Accurately ripped as in pressing(s) #2
24 [0c93e2a9] (03/07) Accurately ripped as in pressing(s) #2
25 [832b0b2c] (03/06) Accurately ripped as in pressing(s) #1

Track [ CRC32 ] [W/O NULL] [ LOG ]
-- [B4B83472] [E74D99C3] CRC32
01 [20BEC7E1] [5454E0F9]
02 [BBA693EB] [06C9A8FF]
03 [E42D608B] [AF38067C]
04 [8DCFAEFE] [6D728C82]
05 [8005F4C7] [0E097F2B]
06 [3C109D46] [896195FD]
07 [28A753FC] [B764DD72]
08 [4B9EE0DD] [C1115F84]
09 [B18F270D] [17827199]
10 [A98E3A8F] [7FE0756B]
11 [02F47415] [812376A6]
12 [5F60A968] [D6E2BC24]
13 [B22293BC] [D35828A1]
14 [619301CC] [081F2E7A]
15 [0302EB2F] [04485806]
16 [CFA8B793] [B7A329D9]
17 [75E76511] [8BC9B48B]
18 [5259C6DD] [B276CDED]
19 [116C8232] [4AFD833E]
20 [E8C54D59] [851AAFF2]
21 [9EC1A0E4] [82574A8B]
22 [7E7B1A2D] [60BB6122]
23 [B00C8E1D] [0D4740E4]
24 [84048269] [382CF814]
25 [13894EF1] [F1FB8E55]

The Monkees - Music Box (2001) - cd2

Tracklist CD2:

01 - A Little Bit Me, A Little Bit You (mono)
02 - She Hangs Out (early version) (short edit)
03 - The Girl I Knew Somewhere (stereo)
04 - All Of Your Toys (stereo)
05 - Love To Love (stereo)
06 - You Told Me
07 - I'll Spend My Life With You
08 - Forget That Girl
09 - You Just May Be The One
10 - Shades Of Gray
11 - For Pete's Sake
12 - Sunny Girlfriend
13 - No Time
14 - Randy Scouse Git
15 - Pleasant Valley Sunday (mono)
16 - Words (stereo)
17 - Daydream Believer (stereo)
18 - Goin' Down (stereo) (4 25 edit)
19 - Salesman
20 - The Door Into Summer
21 - Love Is Only Sleeping
22 - Cuddly Toy
3 - What Am I Doing Hangin' 'Round?
24 - Daily Nightly
25 - Star Collector

EAC Log
Exact Audio Copy V0.99 prebeta 5 from 4. May 2009

Отчёт EAC об извлечении, выполненном 14. мая 2010, 13:49

The Monkees / Music Box [CD 02]

Дисковод: TSSTcorpCDDVDW SH-S223C Adapter: 3 ID: 0

Режим чтения : Достоверность
Использование точного потока : Да
Отключение кэша аудио : Да
Использование указателей C2 : Нет

Коррекция смещения при чтении : 697
Способность читать области Lead-in и Lead-out : Нет
Заполнение пропущенных сэмплов тишиной : Да
Удаление блоков с тишиной в начале и конце : Нет
При вычислениях CRC использовались нулевые сэмплы : Да
Интерфейс : Встроенный Win32-интерфейс для Win NT/2000

Выходной формат : Пользовательский кодировщик
Выбранный битрейт : 1024 kBit/s
Качество : Высокий
Добавление ID3-тэга : Нет
Утилита сжатия : C:\Program Files (x86)\Exact Audio Copy\Flac\flac.exe
Дополнительные параметры : -6 -V -T "ARTIST=%a" -T "TITLE=%t" -T "ALBUM=%g" -T "DATE=%y" -T "TRACKNUMBER=%n" -T "GENRE=%m" -T "COMMENT=%e" %s -o %d


TOC извлечённого CD

Трек | Старт | Длительность | Начальный сектор | Конечный сектор
---------------------------------------------------------------------
1 | 0:00.00 | 2:50.12 | 0 | 12761
2 | 2:50.12 | 2:33.63 | 12762 | 24299
3 | 5:24.00 | 2:35.22 | 24300 | 35946
4 | 7:59.22 | 3:08.25 | 35947 | 50071
5 | 11:07.47 | 2:28.60 | 50072 | 61231
6 | 13:36.32 | 2:26.15 | 61232 | 72196
7 | 16:02.47 | 2:24.08 | 72197 | 83004
8 | 18:26.55 | 2:25.15 | 83005 | 93894
9 | 20:51.70 | 2:03.17 | 93895 | 103136
10 | 22:55.12 | 3:22.08 | 103137 | 118294
11 | 26:17.20 | 2:11.67 | 118295 | 128186
12 | 28:29.12 | 2:33.15 | 128187 | 139676
13 | 31:02.27 | 2:07.65 | 139677 | 149266
14 | 33:10.17 | 2:33.65 | 149267 | 160806
15 | 35:44.07 | 3:07.73 | 160807 | 174904
16 | 38:52.05 | 2:51.17 | 174905 | 187746
17 | 41:43.22 | 3:00.20 | 187747 | 201266
18 | 44:43.42 | 4:23.15 | 201267 | 221006
19 | 49:06.57 | 2:36.00 | 221007 | 232706
20 | 51:42.57 | 2:49.20 | 232707 | 245401
21 | 54:32.02 | 2:31.23 | 245402 | 256749
22 | 57:03.25 | 2:40.60 | 256750 | 268809
23 | 59:44.10 | 3:08.02 | 268810 | 282911
24 | 62:52.12 | 2:32.35 | 282912 | 294346
25 | 65:24.47 | 4:24.30 | 294347 | 314176


Характеристики диапазона извлечения и сообщения об ошибках

Выбранный диапазон

Имя файла C:\Users\Public\Music\Sample Music\Monkees, The\2001.02 · Music Box [4CD]\CD 02\The Monkees - Music Box [CD 02].wav

Пиковый уровень 97.2 %
Качество диапазона 99.9 %
CRC копии 9565BDB5
Копирование... OK

Ошибок не произошло


AccurateRip: сводка

Трек 1 точное извлечение (доверие 2) [255AF68B]
Трек 2 точное извлечение (доверие 2) [9EDE77EF]
Трек 3 точное извлечение (доверие 2) [979C5BDC]
Трек 4 точное извлечение (доверие 2) [E7C68844]
Трек 5 точное извлечение (доверие 2) [E0C1B567]
Трек 6 точное извлечение (доверие 2) [9F327E8E]
Трек 7 точное извлечение (доверие 2) [CAF47C24]
Трек 8 точное извлечение (доверие 2) [D0EDA5FE]
Трек 9 точное извлечение (доверие 2) [2DD68256]
Трек 10 точное извлечение (доверие 2) [530BA354]
Трек 11 точное извлечение (доверие 2) [998ECE0A]
Трек 12 точное извлечение (доверие 2) [F651E51B]
Трек 13 точное извлечение (доверие 2) [E7356713]
Трек 14 точное извлечение (доверие 2) [E36B3EED]
Трек 15 точное извлечение (доверие 2) [421BE68A]
Трек 16 точное извлечение (доверие 2) [70AFDB60]
Трек 17 точное извлечение (доверие 2) [85F7D3AD]
Трек 18 точное извлечение (доверие 2) [E64EF05D]
Трек 19 точное извлечение (доверие 2) [211D3EE0]
Трек 20 точное извлечение (доверие 2) [C6F6AF12]
Трек 21 точное извлечение (доверие 2) [1A5B1D26]
Трек 22 точное извлечение (доверие 2) [8A431302]
Трек 23 точное извлечение (доверие 2) [317C4167]
Трек 24 точное извлечение (доверие 2) [F0E63A37]
Трек 25 точное извлечение (доверие 2) [0FD45437]

Все треки извлечены точно

Конец отчёта

Audiochecker Log
AUDIOCHECKER v2.0 beta (build 457) - by Dester - opdester@freemail.hu
~~~~~~~~~~~~~~~~~~~~~~~~~~~~~~~~~~
-=== DO NOT EDIT THIS FILE! ===-

Path: ...\2001 - Music Box [CD 02]

1 -=- The Monkees - Music Box [CD 02].flac -=- CDDA (100%)

150894500

Accurip(CUETools 1.9.5)
Verification date: 13.07.2011 5:59:47]
[Disc ID: 003bb46b-0438cb59-83105d19]
Track [ CRC ] Status
01 [255af68b] (05/08) Accurately ripped as in pressing(s) #1
02 [9ede77ef] (05/08) Accurately ripped as in pressing(s) #1
03 [979c5bdc] (05/08) Accurately ripped as in pressing(s) #1
04 [e7c68844] (05/08) Accurately ripped as in pressing(s) #1
05 [e0c1b567] (05/08) Accurately ripped as in pressing(s) #1
06 [9f327e8e] (05/08) Accurately ripped as in pressing(s) #1
07 [caf47c24] (05/08) Accurately ripped as in pressing(s) #1
08 [d0eda5fe] (05/08) Accurately ripped as in pressing(s) #1
09 [2dd68256] (05/08) Accurately ripped as in pressing(s) #1
10 [530ba354] (05/08) Accurately ripped as in pressing(s) #1
11 [998ece0a] (05/08) Accurately ripped as in pressing(s) #1
12 [f651e51b] (05/08) Accurately ripped as in pressing(s) #1
13 [e7356713] (05/08) Accurately ripped as in pressing(s) #1
14 [e36b3eed] (05/08) Accurately ripped as in pressing(s) #1
15 [421be68a] (05/08) Accurately ripped as in pressing(s) #1
16 [70afdb60] (04/07) Accurately ripped as in pressing(s) #1
17 [85f7d3ad] (05/08) Accurately ripped as in pressing(s) #1
18 [e64ef05d] (05/08) Accurately ripped as in pressing(s) #1
19 [211d3ee0] (05/08) Accurately ripped as in pressing(s) #1
20 [c6f6af12] (05/08) Accurately ripped as in pressing(s) #1
21 [1a5b1d26] (05/08) Accurately ripped as in pressing(s) #1
22 [8a431302] (05/08) Accurately ripped as in pressing(s) #1
23 [317c4167] (05/08) Accurately ripped as in pressing(s) #1
24 [f0e63a37] (05/08) Accurately ripped as in pressing(s) #1
25 [0fd45437] (04/07) Accurately ripped as in pressing(s) #1
Offsetted by -664:
01 [8feb6083] (03/08) Accurately ripped as in pressing(s) #2
02 [6dd7b287] (03/08) Accurately ripped as in pressing(s) #2
03 [7461df3c] (03/08) Accurately ripped as in pressing(s) #2
04 [cc516e84] (03/08) Accurately ripped as in pressing(s) #2
05 [af3ec03f] (03/08) Accurately ripped as in pressing(s) #2
06 [4f73a626] (03/08) Accurately ripped as in pressing(s) #2
07 [34b6862c] (03/08) Accurately ripped as in pressing(s) #2
08 [3c0c1ae6] (03/08) Accurately ripped as in pressing(s) #2
09 [989f1ac6] (03/08) Accurately ripped as in pressing(s) #2
10 [92f0ecc4] (03/08) Accurately ripped as in pressing(s) #2
11 [3f5f107a] (03/08) Accurately ripped as in pressing(s) #2
12 [07447e4b] (03/08) Accurately ripped as in pressing(s) #2
13 [e56ac6e3] (03/08) Accurately ripped as in pressing(s) #2
14 [1243755d] (03/08) Accurately ripped as in pressing(s) #2
15 [1128582a] (03/08) Accurately ripped as in pressing(s) #2
16 [69c0f270] (03/07) Accurately ripped as in pressing(s) #2
17 [b83cc345] (03/08) Accurately ripped as in pressing(s) #2
18 [e2edb5bd] (03/08) Accurately ripped as in pressing(s) #2
19 [3c739950] (03/08) Accurately ripped as in pressing(s) #2
20 [2b4266ba] (03/08) Accurately ripped as in pressing(s) #2
21 [add7b21e] (03/08) Accurately ripped as in pressing(s) #2
22 [e2ca9e6a] (03/08) Accurately ripped as in pressing(s) #2
23 [37a3cee7] (03/08) Accurately ripped as in pressing(s) #2
24 [8d6a7d07] (03/08) Accurately ripped as in pressing(s) #2
25 [d00677b7] (03/07) Accurately ripped as in pressing(s) #2

Track [ CRC32 ] [W/O NULL] [ LOG ]
-- [9565BDB5] [D0A6F8A9] CRC32
01 [E4951166] [4BD60531]
02 [230E0D32] [68618557]
03 [7E854A1B] [F35C5503]
04 [3ADC6D7D] [5B900465]
05 [2BC78C96] [2266AB66]
06 [77AF0CF4] [49861FD1]
07 [0E5D3BA1] [B86A4603]
08 [8BDBC567] [265C7046]
09 [266CAC6F] [2841AC02]
10 [5353431F] [B825B803]
11 [B6E81808] [2B255177]
12 [066EA7D1] [FECE8DB4]
13 [083852F3] [AFF64597]
14 [EB7879A4] [81FEC552]
15 [F3FDCB45] [34D04840]
16 [674E9874] [B46ADE4D]
17 [9C6C6BB5] [F316FB81]
18 [8B27FB4D] [8369FA85]
19 [895