Loading...

Tedeschi Trucks Band - Made Up Mind (2013)

Posted By : popsakov | Date : 19 Sep 2013 12:13:27 | Comments : 2 |
|



Tedeschi Trucks Band - Made Up Mind (2013)
EAC Rip | FLAC (Img) + Cue + Log ~ 507 Mb | MP3 CBR320 ~ 207 Mb
Scans Included (JPG, 600 dpi) | RAR 5% Recovery
Blues, Rock | Sony Music | 88883 71182 2

Made Up Mind is the highly anticipated follow-up to Tedeschi Trucks Band's 2011 Grammy-winning debut Revelator and last year's scorching live collection, Everybody's Talkin'. Through unparalleled musicianship and a timeless, authentic sound, Made Up Mind proves that TTB is fast becoming a band for the ages.


TTB is known for their extraordinary family of musicians, and Made Up Mind continues that tradition as most tracks were penned by husband-and-wife Tedeschi and Trucks along with various friends and co-writers Doyle Bramhall II, Eric Krasno, Gary Lour's, John Leventhal all of whom also contributed to TTB's debut Revelator. The album was also co-produced by Jim Scott (Johnny Cash, Red Hot Chili Peppers, Wilco) and Trucks, and engineered by Bobby Tis - the same team that developed the last two TTB albums.
Made Up Mind features "Part of Me," a song driven by a classic southern soul groove straight out of Muscle Shoals. The raucous soul-rocker title track "Made Up Mind" demonstrates the full power of the band from the album's first notes. Throughout the course of the album it becomes increasingly apparent that Susan Tedeschi has evolved into one of the most dauntingly commanding vocalists in contemporary music, her serious lung power exploding on standout tracks such as the über-funky "Misunderstood" and just as convincingly digging into the core of poignant, tender ballads like "It's So Heavy" and "Calling Out to You." Derek Trucks has indisputably matured into one of the finest guitarists of our time, tearing up barnburners with his masterful slide and lead lines while showcasing his easier, more subtle touch on the bluesy "Do I Look Worried . Although Tedeschi Trucks Band bears the names of its co-leaders, each member of this 11-piece juggernaut contributes equally, there are no weak links in this true group achievement.


Track List:

01. Made Up Mind [03:53]
02. Do I Look Worried [04:33]
03. Idle Wind [05:09]
04. Misunderstood [05:41]
05. Part Of Me [04:06]
06. Whiskey Legs [04:03]
07. It's So Heavy [04:56]
08. All That I Need [05:11]
09. Sweet And Low [05:02]
10. The Storm [06:34]
11. Calling Out To You [03:46]

EAC Log
Exact Audio Copy V1.0 beta 3 from 29. August 2011

Отчёт EAC об извлечении, выполненном 20. августа 2013, 20:27

Tedeschi Trucks Band / Made Up Mind

Дисковод: PLEXTOR DVDR PX-880SA Adapter: 1 ID: 0

Режим чтения : Достоверность
Использование точного потока : Да
Отключение кэша аудио : Да
Использование указателей C2 : Нет

Коррекция смещения при чтении : 6
Способность читать области Lead-in и Lead-out : Нет
Заполнение пропущенных сэмплов тишиной : Да
Удаление блоков с тишиной в начале и конце : Нет
При вычислениях CRC использовались нулевые сэмплы : Да
Интерфейс : Установленный внешний ASPI-интерфейс

Выходной формат : Пользовательский кодировщик
Выбранный битрейт : 1024 kBit/s
Качество : Высокий
Добавление ID3-тега : Нет
Утилита сжатия : C:\Program Files\Exact Audio Copy\FLAC\FLAC.EXE
Дополнительные параметры : -10 -V -T "ARTIST=%artist%" -T "TITLE=%title%" -T "ALBUM=%albumtitle%" -T "DATE=%year%" -T "TRACKNUMBER=%tracknr%" -T "GENRE=%genre%" -T "COMMENT=%comment%" -T "BAND=%albuminterpret%" -T "ALBUMARTIST=%albuminterpret%" -T "COMPOSER=%composer%" %haslyrics%--tag-from-file=LYRICS="%lyricsfile%"%haslyrics% -T "DISCNUMBER=%cdnumber%" -T "TOTALDISCS=%totalcds%" -T "TOTALTRACKS=%numtracks%" %hascover%--picture="%coverfile%"%hascover% %source% -o %dest%


TOC извлечённого CD

Трек | Старт | Длительность | Начальный сектор | Конечный сектор
---------------------------------------------------------------------
1 | 0:00.00 | 3:55.49 | 0 | 17673
2 | 3:55.49 | 4:35.73 | 17674 | 38371
3 | 8:31.47 | 5:11.65 | 38372 | 61761
4 | 13:43.37 | 5:42.72 | 61762 | 87483
5 | 19:26.34 | 4:08.31 | 87484 | 106114
6 | 23:34.65 | 4:06.57 | 106115 | 124621
7 | 27:41.47 | 4:59.27 | 124622 | 147073
8 | 32:40.74 | 5:13.63 | 147074 | 170611
9 | 37:54.62 | 5:04.47 | 170612 | 193458
10 | 42:59.34 | 6:35.53 | 193459 | 223136
11 | 49:35.12 | 3:46.12 | 223137 | 240098


Характеристики диапазона извлечения и сообщения об ошибках

Выбранный диапазон

Имя файла D:\BitComet\Tedeschi Trucks Band - Made Up Mind(2013)(flac)\Tedeschi Trucks Band - Made Up Mind.wav

Пиковый уровень 99.8 %
Скорость извлечения 3.4 X
Качество диапазона 100.0 %
CRC теста 5DD1CA10
CRC копии 5DD1CA10
Копирование... OK

Ошибок не произошло


AccurateRip: сводка

Трек 1 точность не определена (достоверность 1) [C3D9CC67], AccurateRip вернул [DD4C0F18] (AR v2)
Трек 2 точность не определена (достоверность 1) [DE9C64B0], AccurateRip вернул [3811500B] (AR v2)
Трек 3 точность не определена (достоверность 1) [93146267], AccurateRip вернул [AA7D2B86] (AR v2)
Трек 4 точность не определена (достоверность 1) [02E82E3D], AccurateRip вернул [0AD1821D] (AR v2)
Трек 5 точность не определена (достоверность 1) [BCD2B689], AccurateRip вернул [FCF53203] (AR v2)
Трек 6 точность не определена (достоверность 1) [8F1F1856], AccurateRip вернул [35518D3B] (AR v2)
Трек 7 точность не определена (достоверность 1) [9F27AC59], AccurateRip вернул [BA6A3F1A] (AR v2)
Трек 8 точность не определена (достоверность 1) [9713D9D3], AccurateRip вернул [C206B656] (AR v2)
Трек 9 точность не определена (достоверность 1) [EFB8F81B], AccurateRip вернул [AD07A5A5] (AR v2)
Трек 10 точность не определена (достоверность 1) [B27E67CD], AccurateRip вернул [7EE50676] (AR v2)
Трек 11 точность не определена (достоверность 1) [C033AF2C], AccurateRip вернул [EA1FD20D] (AR v2)

Ни один трек не прошёл проверки на точность
В вашей базе может быть иной вариант штамповки диска

Конец отчёта

==== Контрольная сумма отчёта 4D929631B2C28E5CEEE8DBBA3F3D75E7EE4CCDB304F9D5558DEBBA38D69BD167 ====

DR Log
foobar2000 1.2.6 / Dynamic Range Meter 1.1.1
log date: 2013-09-11 15:43:38

--------------------------------------------------------------------------------
Analyzed: Tedeschi Trucks Band / Made Up Mind
--------------------------------------------------------------------------------

DR Peak RMS Duration Track
--------------------------------------------------------------------------------
DR10 -0.09 dB -11.35 dB 3:56 01-Made Up Mind
DR8 -0.08 dB -9.99 dB 4:36 02-Do I Look Worried
DR9 -0.12 dB -11.19 dB 5:12 03-Idle Wind
DR10 -0.04 dB -11.03 dB 5:43 04-Misunderstood
DR9 -0.05 dB -10.86 dB 4:08 05-Part Of Me
DR9 -0.06 dB -10.52 dB 4:07 06-Whiskey Legs
DR10 -0.07 dB -11.54 dB 4:59 07-It's So Heavy
DR9 -0.08 dB -10.53 dB 5:14 08-All That I Need
DR10 -0.01 dB -12.50 dB 5:05 09-Sweet And Low
DR8 -0.01 dB -9.68 dB 6:36 10-The Storm
DR11 -2.40 dB -16.85 dB 3:46 11-Calling Out To You
--------------------------------------------------------------------------------

Number of tracks: 11
Official DR value: DR9

Samplerate: 44100 Hz
Channels: 2
Bits per sample: 16
Bitrate: 903 kbps
Codec: FLAC
================================================================================


All thanks go to izia1956

Visit my blog!

Download Links:

Uploaded | JunoCloud

pass: www.AvaxHome.ru
ADVERTISING » Free Fast Download! « ADVERTISING


Posted By: batraju Date: 19 Sep 2013 15:32:43
Big thanks for this!!
Posted By: wkay Date: 23 Sep 2013 08:10:36
Both links are dead!
Please re-up.
Thx.