Loading...

Steely Dan - Roaring Of The Lamb (1994)

Posted By : ttolnai | Date : 08 May 2010 07:03:14 | Comments : 1 |
|



Steely Dan - Roaring Of The Lamb (1994)
Rock, Jazz Rock | EAC | FLAC tracks + LOG No Cue| 378,57 MB
Released: 1994 | WZ GmbH


Steely Dan is an American rock band; its core members are Donald Fagen and Walter Becker. The band's popularity peaked in the late 1970s, with the release
of seven albums blending elements of jazz, rock, funk, R&B, and pop. Rolling Stone magazine has called them "the perfect musical antiheroes for the
Seventies."
The band's music is characterized by complex jazz-influenced structures and harmonies played by Becker and Fagen along with a revolving cast of rock and
pop studio musicians. Steely Dan's "cerebral, wry and eccentric"[1] lyrics, often filled with sharp sarcasm, touch upon such themes as drugs, crime, and
their true-to-life "contempt of west coast hippies."The pair are well-known for their near-obsessive perfectionism in the recording studio, with one
notable example being that Becker and Fagen used at least 42 different studio musicians, 11 engineers, and took over a year to record the tracks that
resulted in 1980's Gaucho — an album that contains only seven songs.

Tracks:
01. ANDROID WAREHOUSE 3:12
02. A HORSE IN TOWN 3:40
03. MORE TO COME 4:03
04. PARKER'S BAND 3:12
05. IDA LEE 5:13
06. STONE PIANO 3:45
07. ANY WORLD THAT I'M WELCOME TO 5:31
08. TAKE IT OUT ON ME 2:47
09. THIS SEAT'S BEEN TAKEN 3:38
10. BARRYTOWN 2:44
11. OH WOW IT'S YOU 3:28
12. CHARLIE FREAK 2:39
13. ROARING OF THE LAMB 3:06
14. A LITTLE WITH SUGAR 3:29
15. SUN MOUNTAIN 2:57
16. THE CAVES OF ALTAMIRA 3:18
17. YOU GO WHERE I GO 2:04


EAC Log
Exact Audio Copy V0.99 prebeta 5 from 4. May 2009

EAC kiolvasási logfájl dátuma 8. Május 2010, 5:20

Steely Dan / Roaring Of The Lamb

Használt meghajtó : ASUS DRW-2014S1 Adapter: 0 ID: 0

Olvasási mód : :
: Igen
: Nem
: Nem

Olvasási offset javítás : : 6
Túlolvasás a Lead-In és Lead-Out-ba : Nem
Hiányzó Offsetsample felötlése csenddel : Igen
Megelőző és követő csendes blokkok törlése : Nem
: Nem
: Installált külső ASPI csatolófelület
:

Kimeneti formátum : : Felhasználó által meghatározott tömörítők
: 768 kBit/s
: Magas
: Igen
: C:\Program Files (x86)\Exact Audio Copy\Flac\flac.exe
További parancssori opciók : : -6 -V -T "ARTIST=%a" -T "TITLE=%t" -T "ALBUM=%g" -T "DATE=%y" -T "TRACKNUMBER=%n" -T "GENRE=%m" -T "COMMENT=%e" %s -o %d




| | | |
--------------------------------------------
1 | 0:00.00 | 3:11.62 | 0 | 14386
2 | 3:11.62 | 3:40.03 | 14387 | 30889
3 | 6:51.65 | 4:03.42 | 30890 | 49156
4 | 10:55.32 | 3:12.28 | 49157 | 63584
5 | 14:07.60 | 5:13.20 | 63585 | 87079
6 | 19:21.05 | 3:45.47 | 87080 | 104001
7 | 23:06.52 | 5:31.53 | 104002 | 128879
8 | 28:38.30 | 2:47.20 | 128880 | 141424
9 | 31:25.50 | 3:38.72 | 141425 | 157846
10 | 35:04.47 | 2:44.60 | 157847 | 170206
11 | 37:49.32 | 3:28.35 | 170207 | 185841
12 | 41:17.67 | 2:39.40 | 185842 | 197806
13 | 43:57.32 | 3:06.05 | 197807 | 211761
14 | 47:03.37 | 3:29.35 | 211762 | 227471
15 | 50:32.72 | 2:57.45 | 227472 | 240791
16 | 53:30.42 | 3:19.30 | 240792 | 255746
17 | 56:49.72 | 2:04.60 | 255747 | 265106


Track 1

Fájlnév C:\Users\Apa\Downloads\Steely Dan\Android warehouse.wav

Maximális szint 98.8 %
Track minőség 100.0 %
Másolat CRC 58FB9665
4) [C381F63D]
Másolat OK

Track 2

Fájlnév C:\Users\Apa\Downloads\Steely Dan\A horse in town.wav

Maximális szint 98.8 %
Track minőség 100.0 %
Másolat CRC 74A29F2B
4) [E44D4E44]
Másolat OK

Track 3

Fájlnév C:\Users\Apa\Downloads\Steely Dan\More to come.wav

Maximális szint 99.0 %
Track minőség 100.0 %
Másolat CRC FC330CA8
4) [6B40CE04]
Másolat OK

Track 4

Fájlnév C:\Users\Apa\Downloads\Steely Dan\Parker's band.wav

Maximális szint 98.7 %
Track minőség 100.0 %
Másolat CRC FEB43E06
4) [22151AB7]
Másolat OK

Track 5

Fájlnév C:\Users\Apa\Downloads\Steely Dan\Ida Lee.wav

Maximális szint 98.9 %
Track minőség 100.0 %
Másolat CRC 445E9AFA
4) [BC9FEC73]
Másolat OK

Track 6

Fájlnév C:\Users\Apa\Downloads\Steely Dan\Stone piano.wav

Maximális szint 98.8 %
Track minőség 100.0 %
Másolat CRC 794105A1
4) [941277A1]
Másolat OK

Track 7

Fájlnév C:\Users\Apa\Downloads\Steely Dan\Any world.wav

Maximális szint 98.9 %
Track minőség 99.9 %
Másolat CRC 3DACFEA8
4) [4C845195]
Másolat OK

Track 8

Fájlnév C:\Users\Apa\Downloads\Steely Dan\Take it out on me.wav

Maximális szint 98.8 %
Track minőség 100.0 %
Másolat CRC C2455A6F
4) [C125D1DA]
Másolat OK

Track 9

Fájlnév C:\Users\Apa\Downloads\Steely Dan\This seat's been taken.wav

Maximális szint 98.8 %
Track minőség 100.0 %
Másolat CRC 7D9B1BE7
4) [697A5DA3]
Másolat OK

Track 10

Fájlnév C:\Users\Apa\Downloads\Steely Dan\Barrytown.wav

Maximális szint 98.8 %
Track minőség 100.0 %
Másolat CRC BDBA1F7A
4) [76CEEBFD]
Másolat OK

Track 11

Fájlnév C:\Users\Apa\Downloads\Steely Dan\Oh, wow it's you.wav

Maximális szint 98.9 %
Track minőség 100.0 %
Másolat CRC 5460D97B
4) [A60AE15B]
Másolat OK

Track 12

Fájlnév C:\Users\Apa\Downloads\Steely Dan\Charlie freak.wav

Maximális szint 98.9 %
Track minőség 100.0 %
Másolat CRC 0E8F325D
4) [DB166362]
Másolat OK

Track 13

Fájlnév C:\Users\Apa\Downloads\Steely Dan\Roaring of the lamb.wav

Maximális szint 98.8 %
Track minőség 100.0 %
Másolat CRC 722715F2
4) [A0AE5739]
Másolat OK

Track 14

Fájlnév C:\Users\Apa\Downloads\Steely Dan\A little with sugar.wav

Maximális szint 98.9 %
Track minőség 100.0 %
Másolat CRC 2B66E083
4) [5CF3D2BD]
Másolat OK

Track 15

Fájlnév C:\Users\Apa\Downloads\Steely Dan\Sun mountain.wav

Maximális szint 98.7 %
Track minőség 100.0 %
Másolat CRC 12A8FAD0
4) [1A1CF29F]
Másolat OK

Track 16

Fájlnév C:\Users\Apa\Downloads\Steely Dan\The caves of Altamira.wav

Maximális szint 98.8 %
Track minőség 100.0 %
Másolat CRC A033DD14
4) [E28C8DDF]
Másolat OK

Track 17

Fájlnév C:\Users\Apa\Downloads\Steely Dan\You go where I go.wav

Maximális szint 98.7 %
Track minőség 100.0 %
Másolat CRC A7FBCC46
4) [FD242021]
Másolat OK




Nem volt hiba

Státuszjelentés vége


No Pass

Part1
Part2
Part3
Part4

ADVERTISING » Free Fast Download! « ADVERTISING


Posted By: staki Date: 30 Jul 2010 15:00:59
Thank you very much for this record !