Loading...

Various - Sweet Relief II-Gravity Of The Situation - The Songs Of Vic Chesnutt (1996)

Posted By : Designol | Date : 30 Dec 2010 04:11:23 | Comments : 0 |
|



Various - Sweet Relief II-Gravity Of The Situation - The Songs Of Vic Chesnutt (1996)
EAC Rip | FLAC (image)+CUE+LOG ~ 415 Mb (incl 5%) | MP3 320kbps ~ 150 Mb (incl 5%) | Covers + booklet
Genre: Alternative, Indie, Urban- Folk-Rock | Label: Columbia | # 484137 2 |Time: 00:59:56

Sweet Relief II: Gravity of the Situation is a 1996 tribute album that features a variety of alternative rock bands covering songs written by Vic Chesnutt. It was a sequel to the 1993 album Sweet Relief: A Benefit for Victoria Williams; like the earlier album, proceeds went to the Sweet Relief Fund to assist musicians in need of health care.


Vic Chesnutt Official Website
Vic Chesnutt Wiki

Tracklist:


1. Garbage – "Kick My Ass"
2. R.E.M. – "Sponge"
3. Nanci Griffith with Hootie and the Blowfish – "Gravity of the Situation"
4. Soul Asylum – "When I Ran Off and Left Her"
5. Dog's Eye View – "Dodge"
6. Live – "Supernatural"
7. Smashing Pumpkins with Red Red Meat – "Sad Peter Pan"
8. Sparklehorse – "West of Rome"
9. Joe Henry and Madonna – "Guilty By Association"
10. Kristin Hersh – "Panic Pure"
11. Cracker – "Withering"
12. Indigo Girls – "Free of Hope"
13. Mary Margaret O'Hara – "Florida"
14. Vic Chesnutt and Victoria Williams – "God Is Good"


Personnel:
Artwork By [Art Direction] - Robbie Cavolina
Artwork By [Lettering & Illustration] - Jill Carnes
Executive Producer - Greg Sowders
Mastered By - Greg Calbi
Other [A & R Coordination] - Joanna Ifrah
Other [Guardian Angel] - Jill Berliner
Other [Marketing] - Greg Linn , James Diener
Other [Project Coordinator] - Jenny Oppenheimer
Photography - Henry Diltz
Written-By - Vic Chesnutt


EAC log
Exact Audio Copy V1.0 beta 1 from 15. November 2010

EAC extraction logfile from 29. December 2010, 2:07

Various / Sweet Relief II - Gravity of the Situation (The Songs of Vic Chesnutt)

Used drive : ASUS DRW-24B1ST Adapter: 0 ID: 0

Read mode : Secure
Utilize accurate stream : Yes
Defeat audio cache : Yes
Make use of C2 pointers : No

Read offset correction : 6
Overread into Lead-In and Lead-Out : No
Fill up missing offset samples with silence : Yes
Delete leading and trailing silent blocks : No
Null samples used in CRC calculations : No
Used interface : Native Win32 interface for Win NT & 2000

Used output format : User Defined Encoder
Selected bitrate : 1024 kBit/s
Quality : High
Add ID3 tag : No
Command line compressor : C:\Program Files\Exact Audio Copy\FLAC\FLAC.EXE
Additional command line options : -6 -V -T "ARTIST=%a" -T "TITLE=%t" -T "ALBUM=%g" -T "DATE=%y" -T "TRACKNUMBER=%n" -T "GENRE=%m" -T "COMMENT=%e" %j--picture="%i"%j %s -o %d


TOC of the extracted CD

Track | Start | Length | Start sector | End sector
---------------------------------------------------------
1 | 0:00.00 | 2:31.60 | 0 | 11384
2 | 2:31.60 | 4:07.52 | 11385 | 29961
3 | 6:39.37 | 4:35.53 | 29962 | 50639
4 | 11:15.15 | 3:57.57 | 50640 | 68471
5 | 15:12.72 | 4:44.53 | 68472 | 89824
6 | 19:57.50 | 3:29.67 | 89825 | 105566
7 | 23:27.42 | 5:08.65 | 105567 | 128731
8 | 28:36.32 | 5:43.73 | 128732 | 154529
9 | 34:20.30 | 4:26.30 | 154530 | 174509
10 | 38:46.60 | 2:54.52 | 174510 | 187611
11 | 41:41.37 | 4:17.53 | 187612 | 206939
12 | 45:59.15 | 5:44.15 | 206940 | 232754
13 | 51:43.30 | 2:53.55 | 232755 | 245784
14 | 54:37.10 | 5:18.62 | 245785 | 269696


Range status and errors

Selected range

Filename C:\Designol audiorips\Various - Sweet Relief II-Gravity Of The Situation-The Songs Of Vic Chesnutt [1996 - FLAC]\Various - Sweet Relief II - Gravity of the Situation (The Songs of Vic Chesnutt).wav

Peak level 100.0 %
Extraction speed 0.6 X
Range quality 100.0 %
Copy CRC 2BFF223A
Copy OK

No errors occurred



FileSonic

- FLAC - | - MP3 -

FileServe:

- FLAC - | - MP3


Welcome to My Blog


ADVERTISING » Free Fast Download! « ADVERTISING


No comments for the news