Loading...

Original Album Series: The J. Geils Band (2009) [5CD Box Set, Rhino 8122 79833 8]

Posted By : v3122 | Date : 13 Apr 2011 16:56:42 | Comments : 7 |
|


Original Album Series: The J. Geils Band

Original Album Series: The J. Geils Band (2009) [5CD Box Set, Rhino 8122 79833 8]
Rock/Blues-Rock | EAC Rip | Flac(Image) + Cue + Log | MP3 CBR 320Kbps
Rhino 8122 79833 8 | ~ 1424 + 679 Mb | FSonic, FServe, Uploaded
Scans Included | Box Art -> 39 Mb

Five CD box set containing a quintet of original albums from this Blues/Rock/Pop outfit: "Live" Full House, Bloodshot, Ladies Invited, The J. Geils Band and The Morning After.

The J. Geils Band

The J. Geils Band:

The J. Geils Band was one of the most popular touring rock & roll bands in America during the '70s. Where their contemporaries were influenced by the heavy boogie of British blues-rock and the ear-splitting sonic adventures of psychedelia, the J. Geils Band was a bar band pure and simple, churning out greasy covers of obscure R&B, doo wop, and soul tunes, cutting them with a healthy dose of Stonesy swagger. While their muscular sound and the hyper jive of frontman Peter Wolf packed arenas across America, it only rarely earned them hit singles. Seth Justman, the group's main songwriter, could turn out catchy R&B-based rockers like "Give It to Me" and "Must of Got Lost," but these hits never led to stardom, primarily because the group had trouble capturing the energy of its live sound in the studio. In the early '80s, the group tempered its driving rock with some pop, and the makeover paid off with the massive hit single "Centerfold," which stayed at number one for six weeks. By the time the band prepared to record a follow-up, tensions between Justman and Wolf had grown considerably, resulting in Wolf's departure, which quickly led to the band's demise. After working for years to reach to top of the charts, the J. Geils Band couldn't stay there once they finally achieved their goal.

Guitarist J. Geils, bassist Danny Klein, and harpist Magic Dick (born Richard Salwitz) began performing as an acoustic blues trio sometime in the mid-'60s. In 1967, drummer Stephen Jo Bladd and vocalist Peter Wolf joined the group, and the band went electric. Before joining the J. Geils Band, Bladd and Wolf played together in the Boston-based rock revivalist band the Hallucinations. Both musicians shared a love of arcane doo wop, blues, R&B, and rock & roll, and Wolf had become well-known by spinning such obscure singles as a jive-talking WBCN DJ called Woofuh Goofuh. Wolf and Bladd's specialized tastes became a central force in the newly revamped J. Geils Band, whose members positioned themselves as tough '50s greasers in opposition to the colorful psychedelic rockers who dominated the East Coast in the late '60s. Soon, the band had earned a sizable local following, including Seth Justman, an organist who was studying at Boston University. Justman joined the band in 1968, and the band continued to tour for the next few years, landing a record contract with Atlantic in 1970.

The J. Geils Band was a regional hit upon its early 1970 release, and it earned favorable reviews, especially from Rolling Stone. The group's second album, The Morning After, appeared later that year and, thanks to the Top 40 hit "Looking for a Love," the album expanded the band's following. However, the J. Geils Band continued to win new fans primarily through their concerts, so it was no surprise that their third album, 1972's Full House, was a live set. It was followed by Bloodshot, a record that climbed into the Top Ten on the strength of the Top 40 hit "Give It to Me." Following the relative failure of 1973's Ladies Invited, the band had another hit with 1974's Nightmares, which featured the number 12 single "Must of Got Lost." While their live shows remained popular throughout the mid-'70s, both Hot Line (1975) and the live Blow Your Face Out (1976) were significant commercial disappointments. The band revamped its sound and shortened its name to "Geils" for 1977's Monkey Island. While the album received good reviews, the record failed to bring the group increased sales.

In 1978, the J. Geils Band left Atlantic Records for EMI, releasing Sanctuary later that year. Sanctuary slowly gained a following, becoming their first gold album since Bloodshot. Love Stinks (1980) expanded the group's following even more, peaking at number 18 in the charts and setting the stage for 1981's Freeze Frame, the band's high watermark. Supported by the infectious single "Centerfold" -- which featured a memorable video that received heavy MTV airplay -- and boasting a sleek, radio-ready sound, Freeze Frame climbed to number one. "Centerfold" shot to the top of the charts late in 1981, spending six weeks at number one; its follow-up, "Freeze-Frame," was nearly as successful, reaching number four in the spring of 1982. The live album Showtime! became a gold album shortly after its late 1982 release.

While the band was experiencing the greatest commercial success of its career, relationships between the members, particularly writing partners Justman and Wolf, were volatile. When the group refused to record material Wolf had written with Don Covay and Michael Jonzun, he left the band in the middle of a 1983 recording session. Justman assumed lead vocals, and the group released You're Gettin' Even While I'm Gettin' Odd in late 1984, several months after Wolf's successful solo debut, Lights Out. The J. Geils Band's record was a failure, and the band broke up in 1985. Magic Dick and J. Geils reunited in 1993 to form a contemporary blues band that has released two CDs, Bluestime and Little Car Blues.

~ Stephen Thomas Erlewine, Rovi

В середине 60-х годов в Бостоне появилось акустическое трио «J. Geils Blues Band», исполнявшее как чикагские блюзовые стандарты, так и вещи Стива Кроппера, Джими Хендрикса и Джеймса Брауна. В состав бэнда входили тяготевший к южному слайдовому стилю гитарист Джером Гейлс (р. 20 февраля 1946), большой поклонник музыки соул басист Дэнни «Д.К.» Клейн и специалист по гармонике Ричард Сэлвитц ака Мэджик Дик, имевший разносторонние интересы от джаза до блюза. Название группы вскоре изменилось на «The J. Geils Band», а в 1967 году к коллективу присоединились вокалист Питер Вольф и барабанщик Стивен Джо Бладд (оба – экс-«Hallucinations»). К этому моменту команда переключалась на электрогитары, а в 1969-м состав доукомплектовался клавишником Сетом Джастмэном. Несколько лет «J. Geils Band» зарабатывали концертную популярность, по возможности выступая с такими титанами блюза как Мадди Уотерс, Хаулин Вульф и Джон Ли Хукер.

~ Last Fm

The J. Geils Band - 1

-------------------------------------------

Original Album Series: The J. Geils Band (2009) [5CD Box Set, Rhino 8122 79833 8]:

CD1: The J. Geils Band -  The J. Geils Band (1970)

CD1: The J. Geils Band - The J. Geils Band (1970)
Rock/Blues-Rock | EAC Rip | Flac(Image) + Cue + Log | MP3 CBR 320Kbps
Scans Included | ~ 270 + 130 Mb | FSonic, FServe, Uploaded

CD1: The J. Geils Band -  The J. Geils Band (1970) - cd

Tracklist:

01. Wait
02. Ice Breaker (For The Big 'M')
03. Cruisin' For A Love
04. Hard Drivin' Man
05. Serves You Right To Suffer
06. Homework
07. First I Look At The Purse
08. What's Your Hurry
09. On Borrowed Time
10. Pack Fair And Square
11. Sno-Cone

EAC Log
Exact Audio Copy V1.0 beta 1 from 15. November 2010

EAC extraction logfile from 9. March 2011, 21:07

The J. Geils Band / The J. Geils Band

Used drive : HL-DT-STDVDRAM GSA-H60N Adapter: 2 ID: 0

Read mode : Secure
Utilize accurate stream : Yes
Defeat audio cache : Yes
Make use of C2 pointers : No

Read offset correction : 667
Overread into Lead-In and Lead-Out : No
Fill up missing offset samples with silence : Yes
Delete leading and trailing silent blocks : No
Null samples used in CRC calculations : Yes
Used interface : Native Win32 interface for Win NT & 2000

Used output format : Internal WAV Routines
Sample format : 44.100 Hz; 16 Bit; Stereo


TOC of the extracted CD

Track | Start | Length | Start sector | End sector
---------------------------------------------------------
1 | 0:00.00 | 3:27.07 | 0 | 15531
2 | 3:27.07 | 2:17.35 | 15532 | 25841
3 | 5:44.42 | 2:32.15 | 25842 | 37256
4 | 8:16.57 | 2:18.60 | 37257 | 47666
5 | 10:35.42 | 4:59.63 | 47667 | 70154
6 | 15:35.30 | 2:43.67 | 70155 | 82446
7 | 18:19.22 | 3:53.00 | 82447 | 99921
8 | 22:12.22 | 2:44.45 | 99922 | 112266
9 | 24:56.67 | 3:04.28 | 112267 | 126094
10 | 28:01.20 | 2:00.27 | 126095 | 135121
11 | 30:01.47 | 3:24.48 | 135122 | 150469


Range status and errors

Selected range

Filename C:\Documents and Settings\Администратор\Rip by ALLexxess\2009 The J. Geils Band Original Album Series (5CD Box Set Rhino Records)\1970 The J. Geils Band\The J. Geils Band - The J. Geils Band.wav

Peak level 100.0 %
Extraction speed 0.5 X
Range quality 100.0 %
Test CRC 97C3DBAD
Copy CRC 97C3DBAD
Copy OK

No errors occurred


AccurateRip summary

Track 1 accurately ripped (confidence 3) [F6014193]
Track 2 accurately ripped (confidence 3) [28D49A96]
Track 3 accurately ripped (confidence 3) [F1460A2A]
Track 4 accurately ripped (confidence 3) [9AD86C8B]
Track 5 accurately ripped (confidence 3) [4D78B9A0]
Track 6 accurately ripped (confidence 3) [41E22518]
Track 7 accurately ripped (confidence 3) [8681392B]
Track 8 accurately ripped (confidence 3) [F0DF56C4]
Track 9 accurately ripped (confidence 3) [E6530047]
Track 10 accurately ripped (confidence 3) [0D8BD0D5]
Track 11 accurately ripped (confidence 3) [2D564618]

All tracks accurately ripped

End of status report

Audiochecker Log
AUDIOCHECKER v2.0 beta (build 457) - by Dester - opdester@freemail.hu
~~~~~~~~~~~~~~~~~~~~~~~~~~~~~~~~~~
-=== DO NOT EDIT THIS FILE! ===-

Path: ...\CD1 - 1970 - The J. Geils Band

01 -=- The J. Geils Band - The J. Geils Band.flac -=- CDDA (100%)

147904292

Accurip(CUETools 1.9.5)
[Verification date: 11.04.2011 12:19:42]
[Disc ID: 000dc678-0077e254-9407d60b]
Track [ CRC ] Status
01 [f6014193] (07/29) Accurately ripped as in pressing(s) #2
02 [28d49a96] (07/29) Accurately ripped as in pressing(s) #2
03 [f1460a2a] (07/29) Accurately ripped as in pressing(s) #2
04 [9ad86c8b] (07/28) Accurately ripped as in pressing(s) #2
05 [4d78b9a0] (07/28) Accurately ripped as in pressing(s) #2
06 [41e22518] (07/29) Accurately ripped as in pressing(s) #2
07 [8681392b] (07/29) Accurately ripped as in pressing(s) #2
08 [f0df56c4] (07/29) Accurately ripped as in pressing(s) #2
09 [e6530047] (07/29) Accurately ripped as in pressing(s) #2
10 [0d8bd0d5] (07/29) Accurately ripped as in pressing(s) #2
11 [2d564618] (07/28) Accurately ripped as in pressing(s) #2
Offsetted by 18:
01 [8d943a5f] (15/29) Accurately ripped as in pressing(s) #1
02 [5f764cde] (15/29) Accurately ripped as in pressing(s) #1
03 [d30a5c18] (15/29) Accurately ripped as in pressing(s) #1
04 [61a01939] (15/28) Accurately ripped as in pressing(s) #1
05 [1abac9bc] (15/28) Accurately ripped as in pressing(s) #1
06 [505e98d8] (15/29) Accurately ripped as in pressing(s) #1
07 [8d96200b] (15/29) Accurately ripped as in pressing(s) #1
08 [07e692f6] (15/29) Accurately ripped as in pressing(s) #1
09 [8dd07e19] (15/29) Accurately ripped as in pressing(s) #1
10 [63fe2539] (15/29) Accurately ripped as in pressing(s) #1
11 [0f440538] (15/28) Accurately ripped as in pressing(s) #1
Offsetted by 1288:
01 [8cdd0543] (04/29) Accurately ripped as in pressing(s) #3
02 [c35c36b6] (04/29) Accurately ripped as in pressing(s) #3
03 [efb40d22] (04/29) Accurately ripped as in pressing(s) #3
04 [b8e12283] (03/28) Accurately ripped as in pressing(s) #3
05 [0228c890] (03/28) Accurately ripped as in pressing(s) #3
06 [c0399c18] (04/29) Accurately ripped as in pressing(s) #3
07 [f30388ab] (04/29) Accurately ripped as in pressing(s) #3
08 [998fb84c] (04/29) Accurately ripped as in pressing(s) #3
09 [61d8644f] (04/29) Accurately ripped as in pressing(s) #3
10 [e1f283e5] (04/29) Accurately ripped as in pressing(s) #3
11 [1ae6ce98] (03/28) Accurately ripped as in pressing(s) #3

Track [ CRC32 ] [W/O NULL] [ LOG ]
-- [97C3DBAD] [507A717B] CRC32
01 [D6B84D13] [B14A3433]
02 [8F1CCD43] [469700E7]
03 [43552A92] [5D5DA3CD]
04 [7EED95C0] [24007844]
05 [7DE2786D] [C39080D3]
06 [0FBFCF0F] [A9AB1185]
07 [05FC0CFC] [BF0EE6ED]
08 [535E49EB] [D1AA774B]
09 [0AE48531] [9F5A92E9]
10 [72B65A9A] [DE968A46]
11 [192B5AC3] [53DEF637]

-----------------------------------------------------------------

CD2: The J. Geils Band - The Morning After (1971)

CD2: The J. Geils Band - The Morning After (1971)
Rock/Blues-Rock | EAC Rip | Flac(Image) + Cue + Log | MP3 CBR 320Kbps
Scans Included | ~ 274 + 132 Mb | FSonic, FServe, Uploaded

CD2: The J. Geils Band - The Morning After (1971) - cd

Tracklist:

01. Don't Need You No More
02. Whammer Jammer
03. So Sharp
04. The Usual Place
05. Gotta Have Your Love
06. Looking For A Love
07. Gonna Find Me A New Love
08. Cry One More Time
09. Floyd's Hotel
10. It Ain't What You Do (It's How You Do It)

EAC Log
Exact Audio Copy V1.0 beta 1 from 15. November 2010

EAC extraction logfile from 9. March 2011, 19:24

J. Geils Band / The Morning After

Used drive : HL-DT-STDVDRAM GSA-H60N Adapter: 2 ID: 0

Read mode : Secure
Utilize accurate stream : Yes
Defeat audio cache : Yes
Make use of C2 pointers : No

Read offset correction : 667
Overread into Lead-In and Lead-Out : No
Fill up missing offset samples with silence : Yes
Delete leading and trailing silent blocks : No
Null samples used in CRC calculations : Yes
Used interface : Native Win32 interface for Win NT & 2000

Used output format : Internal WAV Routines
Sample format : 44.100 Hz; 16 Bit; Stereo


TOC of the extracted CD

Track | Start | Length | Start sector | End sector
---------------------------------------------------------
1 | 0:00.33 | 2:36.50 | 33 | 11782
2 | 2:37.08 | 2:37.42 | 11783 | 23599
3 | 5:14.50 | 3:10.63 | 23600 | 37912
4 | 8:25.38 | 2:45.52 | 37913 | 50339
5 | 11:11.15 | 4:32.50 | 50340 | 70789
6 | 15:43.65 | 3:47.18 | 70790 | 87832
7 | 19:31.08 | 3:24.32 | 87833 | 103164
8 | 22:55.40 | 3:23.10 | 103165 | 118399
9 | 26:18.50 | 3:11.43 | 118400 | 132767
10 | 29:30.18 | 5:12.24 | 132768 | 156191


Range status and errors

Selected range

Filename C:\Documents and Settings\Администратор\Rip by ALLexxess\2009 The J. Geils Band Original Album Series (5CD Box Set Rhino Records)\1971 The Morning After\J. Geils Band - The Morning After.wav

Peak level 100.0 %
Extraction speed 0.8 X
Range quality 100.0 %
Test CRC A98C9068
Copy CRC A98C9068
Copy OK

No errors occurred


AccurateRip summary

Track 1 accurately ripped (confidence 3) [263B851F]
Track 2 accurately ripped (confidence 3) [CCA566E1]
Track 3 accurately ripped (confidence 3) [EC9B8749]
Track 4 accurately ripped (confidence 3) [54EEAB2F]
Track 5 accurately ripped (confidence 3) [8D185BC3]
Track 6 accurately ripped (confidence 3) [8571D788]
Track 7 accurately ripped (confidence 3) [CBA6EC6C]
Track 8 accurately ripped (confidence 3) [BA538B02]
Track 9 accurately ripped (confidence 3) [BEA26EFB]
Track 10 accurately ripped (confidence 3) [CA0FD719]

All tracks accurately ripped

End of status report

Audiochecker Log
AUDIOCHECKER v2.0 beta (build 457) - by Dester - opdester@freemail.hu
~~~~~~~~~~~~~~~~~~~~~~~~~~~~~~~~~~
-=== DO NOT EDIT THIS FILE! ===-

Path: ...\CD2 - 1971 - The Morning After

01 -=- J. Geils Band - The Morning After.flac -=- CDDA (100%)

199833044

Accurip(CUETools 1.9.5)
[Verification date: 11.04.2011 12:20:07]
[Disc ID: 000c18f1-0062c932-8608220a]
Pregap length 00:00:33.
Track [ CRC ] Status
01 [263b851f] (07/10) Accurately ripped as in pressing(s) #1
02 [cca566e1] (07/10) Accurately ripped as in pressing(s) #1
03 [ec9b8749] (07/10) Accurately ripped as in pressing(s) #1
04 [54eeab2f] (07/10) Accurately ripped as in pressing(s) #1
05 [8d185bc3] (07/10) Accurately ripped as in pressing(s) #1
06 [8571d788] (07/10) Accurately ripped as in pressing(s) #1
07 [cba6ec6c] (07/10) Accurately ripped as in pressing(s) #1
08 [ba538b02] (07/10) Accurately ripped as in pressing(s) #1
09 [bea26efb] (07/10) Accurately ripped as in pressing(s) #1
10 [ca0fd719] (07/10) Accurately ripped as in pressing(s) #1

Track [ CRC32 ] [W/O NULL] [ LOG ]
-- [A98C9068] [EDCACD1F] CRC32
01 [8CF762A2] [0B6CD824]
02 [FD3A67DE] [4967E2FA]
03 [13D8F4D3] [5613BD1F]
04 [39D4A937] [18215357]
05 [1D6BD23A] [805126C4]
06 [3C6ADFEF] [0EC06421]
07 [7B26676B] [53BE4549]
08 [46658752] [9DE465C8]
09 [0739AD3C] [1793FDB8]
10 [BC670852] [2E8A4D07]

-----------------------------------------------------------------

CD3: The J. Geils Band -  Live: Full House (1972)

CD3: The J. Geils Band - Live: Full House (1972)
Rock/Blues-Rock | EAC Rip | Flac(Image) + Cue + Log | MP3 CBR 320Kbps
Scans Included | ~ 301 + 135 Mb | FSonic, FServe, Uploaded

CD3: The J. Geils Band -  Live: Full House (1972) - cd

Tracklist:

1. First I Look At The Purse
2. Homework
3. Pack Fair And Square
4. Whammer Jammer
5. Hard Drivin' Man
6. Serves You Right To Suffer
7. Cruisin' For A Love
8. Looking For A Love

EAC Log
Exact Audio Copy V1.0 beta 1 from 15. November 2010

EAC extraction logfile from 9. March 2011, 21:40

J. Geils Band / 'Live' Full House

Used drive : HL-DT-STDVDRAM GSA-H60N Adapter: 2 ID: 0

Read mode : Secure
Utilize accurate stream : Yes
Defeat audio cache : Yes
Make use of C2 pointers : No

Read offset correction : 667
Overread into Lead-In and Lead-Out : No
Fill up missing offset samples with silence : Yes
Delete leading and trailing silent blocks : No
Null samples used in CRC calculations : Yes
Used interface : Native Win32 interface for Win NT & 2000

Used output format : Internal WAV Routines
Sample format : 44.100 Hz; 16 Bit; Stereo


TOC of the extracted CD

Track | Start | Length | Start sector | End sector
---------------------------------------------------------
1 | 0:00.00 | 4:08.57 | 0 | 18656
2 | 4:08.57 | 2:43.18 | 18657 | 30899
3 | 6:52.00 | 2:34.22 | 30900 | 42471
4 | 9:26.22 | 2:37.13 | 42472 | 54259
5 | 12:03.35 | 4:39.35 | 54260 | 75219
6 | 16:42.70 | 9:57.35 | 75220 | 120029
7 | 26:40.30 | 3:37.57 | 120030 | 136361
8 | 30:18.12 | 5:27.25 | 136362 | 160911


Range status and errors

Selected range

Filename C:\Documents and Settings\Администратор\Рабочий стол\Lossless Galaxy Rip by ALLexxess\2009 The J. Geils Band Original Album Series (5CD Box Set Rhino Records)\1972 'Live' Full House\J. Geils Band - 'Live' Full House.wav

Peak level 100.0 %
Extraction speed 0.8 X
Range quality 99.9 %
Test CRC CC69276C
Copy CRC CC69276C
Copy OK

No errors occurred


AccurateRip summary

Track 1 accurately ripped (confidence 3) [F8914907]
Track 2 accurately ripped (confidence 3) [98E5264E]
Track 3 accurately ripped (confidence 3) [9614D457]
Track 4 accurately ripped (confidence 3) [A928C9A5]
Track 5 accurately ripped (confidence 3) [42344F33]
Track 6 accurately ripped (confidence 3) [A0CFE850]
Track 7 accurately ripped (confidence 3) [01C8CEB4]
Track 8 accurately ripped (confidence 3) [31FC38A4]

All tracks accurately ripped

End of status report

Audiochecker Log
AUDIOCHECKER v2.0 beta (build 457) - by Dester - opdester@freemail.hu
~~~~~~~~~~~~~~~~~~~~~~~~~~~~~~~~~~
-=== DO NOT EDIT THIS FILE! ===-

Path: ...\CD3 - 1972 - 'Live' Full House

01 -=- J. Geils Band - 'Live' Full House.flac -=- CDDA (100%)

94698516

Accurip(CUETools 1.9.5)
[Verification date: 11.04.2011 12:20:30]
[Disc ID: 0009bf5d-00432aad-4c086108]
Track [ CRC ] Status
01 [f8914907] (05/58) Accurately ripped as in pressing(s) #3
02 [98e5264e] (05/60) Accurately ripped as in pressing(s) #3
03 [9614d457] (05/60) Accurately ripped as in pressing(s) #3
04 [a928c9a5] (04/59) Accurately ripped as in pressing(s) #3
05 [42344f33] (04/59) Accurately ripped as in pressing(s) #3
06 [a0cfe850] (05/60) Accurately ripped as in pressing(s) #3
07 [01c8ceb4] (05/60) Accurately ripped as in pressing(s) #3
08 [31fc38a4] (05/60) Accurately ripped as in pressing(s) #3
Offsetted by 18:
01 [9fbda485] (32/58) Accurately ripped as in pressing(s) #1
02 [8bab5647] (33/60) Accurately ripped as in pressing(s) #1
03 [6e2a0e00] (33/60) Accurately ripped as in pressing(s) #1
04 [1054eeaf] (33/59) Accurately ripped as in pressing(s) #1
05 [ca7e2e8b] (33/59) Accurately ripped as in pressing(s) #1
06 [54ef6f2c] (33/60) Accurately ripped as in pressing(s) #1
07 [5c4df7f6] (33/60) Accurately ripped as in pressing(s) #1
08 [1bd2f9ae] (33/60) Accurately ripped as in pressing(s) #1
Offsetted by 1284:
01 [97b7fff0] (18/58) Accurately ripped as in pressing(s) #2
02 [87a6abe0] (19/60) Accurately ripped as in pressing(s) #2
03 [d825f308] (19/60) Accurately ripped as in pressing(s) #2
04 [cc1fb349] (19/59) Accurately ripped as in pressing(s) #2
05 [bf617e87] (19/59) Accurately ripped as in pressing(s) #2
06 [609f8850] (19/60) Accurately ripped as in pressing(s) #2
07 [e8be2912] (19/60) Accurately ripped as in pressing(s) #2
08 [53a2f5e6] (19/60) Accurately ripped as in pressing(s) #2

Track [ CRC32 ] [W/O NULL] [ LOG ]
-- [CC69276C] [4E4AE7E4] CRC32
01 [B81AC619] [DC6D514D]
02 [881B1AA9] [3F1C4EA4]
03 [DEA9C77A] [0623115E]
04 [6B6DFBF7] [D688A981]
05 [8EB9F0CF] [6BCF1042]
06 [682D1EDE] [DCDC1FBD]
07 [2022DEAE] [44A3141B]
08 [E6CA31F6] [2E45E246]

-----------------------------------------------------------------

CD4: The J. Geils Band - Bloodshot (1973)

CD4: The J. Geils Band - Bloodshot (1973)
Rock/Blues-Rock | EAC Rip | Flac(Image) + Cue + Log | MP3 CBR 320Kbps
Scans Included | ~ 283 + 136 Mb | FSonic, FServe, Uploaded

CD4: The J. Geils Band - Bloodshot (1973) - cd

Tracklist:

1. (Ain't Nothin' But A) House Party
2. Make Up Your Mind
3. Back To Get Ya
4. Struttin' With My Baby
5. Don't Try To Hide It
6. Southside Shuffle
7. Hold Your Loving
8. Start All Over Again
9. Give It To Me

EAC Log
Exact Audio Copy V1.0 beta 1 from 15. November 2010

EAC extraction logfile from 11. March 2011, 0:46

The J. Geils Band / Bloodshot

Used drive : HL-DT-STDVDRAM GSA-H60N Adapter: 2 ID: 0

Read mode : Secure
Utilize accurate stream : Yes
Defeat audio cache : Yes
Make use of C2 pointers : No

Read offset correction : 667
Overread into Lead-In and Lead-Out : No
Fill up missing offset samples with silence : Yes
Delete leading and trailing silent blocks : No
Null samples used in CRC calculations : Yes
Used interface : Native Win32 interface for Win NT & 2000

Used output format : Internal WAV Routines
Sample format : 44.100 Hz; 16 Bit; Stereo


TOC of the extracted CD

Track | Start | Length | Start sector | End sector
---------------------------------------------------------
1 | 0:00.00 | 4:43.05 | 0 | 21229
2 | 4:43.05 | 3:30.55 | 21230 | 37034
3 | 8:13.60 | 5:19.45 | 37035 | 61004
4 | 13:33.30 | 3:18.15 | 61005 | 75869
5 | 16:51.45 | 2:34.57 | 75870 | 87476
6 | 19:26.27 | 3:43.68 | 87477 | 104269
7 | 23:10.20 | 2:32.00 | 104270 | 115669
8 | 25:42.20 | 4:13.50 | 115670 | 134694
9 | 29:55.70 | 6:32.27 | 134695 | 164121


Range status and errors

Selected range

Filename C:\Documents and Settings\Администратор\Rip by ALLexxess\2009 The J. Geils Band Original Album Series (5CD Box Set Rhino Records)\1973 Bloodshot\The J. Geils Band - Bloodshot.wav

Peak level 100.0 %
Extraction speed 0.8 X
Range quality 100.0 %
Test CRC 3FA94F37
Copy CRC 3FA94F37
Copy OK

No errors occurred


AccurateRip summary

Track 1 accurately ripped (confidence 3) [2BFF052B]
Track 2 accurately ripped (confidence 3) [49980B5E]
Track 3 accurately ripped (confidence 3) [47A749FE]
Track 4 accurately ripped (confidence 3) [6EBBD0DF]
Track 5 accurately ripped (confidence 3) [C65C1DBB]
Track 6 accurately ripped (confidence 3) [E8ED8BBA]
Track 7 accurately ripped (confidence 3) [2AA9F2EC]
Track 8 accurately ripped (confidence 3) [25D9AB1F]
Track 9 accurately ripped (confidence 3) [514B1CA7]

All tracks accurately ripped

End of status report

Audiochecker Log
AUDIOCHECKER v2.0 beta (build 457) - by Dester - opdester@freemail.hu
~~~~~~~~~~~~~~~~~~~~~~~~~~~~~~~~~~
-=== DO NOT EDIT THIS FILE! ===-

Path: ...\CD4 - 1973 - Bloodshot

01 -=- The J. Geils Band - Bloodshot.flac -=- CDDA (99%)

261034644

Accurip(CUETools 1.9.5)
Verification date: 11.04.2011 12:20:59]
[Disc ID: 000c3a5e-0058a95b-7b088c09]
Track [ CRC ] Status
01 [2bff052b] (06/25) Accurately ripped as in pressing(s) #3
02 [49980b5e] (06/23) Accurately ripped as in pressing(s) #2
03 [47a749fe] (06/23) Accurately ripped as in pressing(s) #2
04 [6ebbd0df] (06/23) Accurately ripped as in pressing(s) #2
05 [c65c1dbb] (06/23) Accurately ripped as in pressing(s) #2
06 [e8ed8bba] (06/23) Accurately ripped as in pressing(s) #2
07 [2aa9f2ec] (06/23) Accurately ripped as in pressing(s) #2
08 [25d9ab1f] (06/23) Accurately ripped as in pressing(s) #2
09 [514b1ca7] (06/25) Accurately ripped as in pressing(s) #3
Offsetted by 18:
01 [1c07fd19] (10/25) Accurately ripped as in pressing(s) #1
02 [dcfb7daa] (09/23) Accurately ripped as in pressing(s) #1
03 [cc39ef58] (09/23) Accurately ripped as in pressing(s) #1
04 [6e41c917] (09/23) Accurately ripped as in pressing(s) #1
05 [43f58397] (09/23) Accurately ripped as in pressing(s) #1
06 [00d131a4] (09/23) Accurately ripped as in pressing(s) #1
07 [f0a88520] (09/23) Accurately ripped as in pressing(s) #1
08 [599ebd49] (09/23) Accurately ripped as in pressing(s) #1
09 [787ced9f] (10/25) Accurately ripped as in pressing(s) #1
Offsetted by 1282:
01 [659a3829] (06/25) Accurately ripped as in pressing(s) #2
02 [1209f44a] (05/23) Accurately ripped as in pressing(s) #3
03 [62aca008] (05/23) Accurately ripped as in pressing(s) #3
04 [693a5157] (05/23) Accurately ripped as in pressing(s) #3
05 [9b5ec9b7] (05/23) Accurately ripped as in pressing(s) #3
06 [557c09d4] (05/23) Accurately ripped as in pressing(s) #3
07 [b20b4a80] (05/23) Accurately ripped as in pressing(s) #3
08 [c5e66379] (05/23) Accurately ripped as in pressing(s) #3
09 [ffee3fdf] (06/25) Accurately ripped as in pressing(s) #2

Track [ CRC32 ] [W/O NULL] [ LOG ]
-- [3FA94F37] [ACF36345] CRC32
01 [F595162F] [72FEBD46]
02 [02ECECAD] [A83FC36D]
03 [CA6D71DE] [4EDD0225]
04 [76C0132D] [D97665F8]
05 [CFC3466C] [C9A84C68]
06 [7A473BCD] [0152D9BC]
07 [A86EC6B4] [BFB44974]
08 [94B8B0C3] [A59838B3]
09 [0CC9C7C9] [8D285177]

-----------------------------------------------------------------

CD5: The J. Geils Band - Ladies Invited (1973)

CD5: The J. Geils Band - Ladies Invited (1973)
Rock/Blues-Rock | EAC Rip | Flac(Image) + Cue + Log | MP3 CBR 320Kbps
Scans Included | ~ 296 + 146 Mb | FSonic, FServe, Uploaded

CD5: The J. Geils Band - Ladies Invited (1973) - cd

Tracklist:

1. Did You No Wrong
2. I Can't Go On
3. Lay Your Good Thing Down
4. That's Why I'm Thinking Of You
5. No Doubt About It
6. The Lady Makes Demands
7. My Baby Don't Love Me
8. Diddyboppin'
9. Take A Chance (On Romance)
10. Chimes

EAC Log
Exact Audio Copy V1.0 beta 1 from 15. November 2010

EAC extraction logfile from 11. March 2011, 0:05

The J. Geils Band / Ladies Invited

Used drive : HL-DT-STDVDRAM GSA-H60N Adapter: 2 ID: 0

Read mode : Secure
Utilize accurate stream : Yes
Defeat audio cache : Yes
Make use of C2 pointers : No

Read offset correction : 667
Overread into Lead-In and Lead-Out : No
Fill up missing offset samples with silence : Yes
Delete leading and trailing silent blocks : No
Null samples used in CRC calculations : Yes
Used interface : Native Win32 interface for Win NT & 2000

Used output format : Internal WAV Routines
Sample format : 44.100 Hz; 16 Bit; Stereo


TOC of the extracted CD

Track | Start | Length | Start sector | End sector
---------------------------------------------------------
1 | 0:00.00 | 4:08.17 | 0 | 18616
2 | 4:08.17 | 5:04.38 | 18617 | 41454
3 | 9:12.55 | 4:32.27 | 41455 | 61881
4 | 13:45.07 | 3:13.23 | 61882 | 76379
5 | 16:58.30 | 3:40.70 | 76380 | 92949
6 | 20:39.25 | 4:21.52 | 92950 | 112576
7 | 25:01.02 | 3:42.63 | 112577 | 129289
8 | 28:43.65 | 3:31.47 | 129290 | 145161
9 | 32:15.37 | 3:56.00 | 145162 | 162861
10 | 36:11.37 | 5:03.33 | 162862 | 185619


Range status and errors

Selected range

Filename C:\Documents and Settings\Администратор\Rip by ALLexxess\2009 The J. Geils Band Original Album Series (5CD Box Set Rhino Records)\1973 Ladies Invited\The J. Geils Band - Ladies Invited.wav

Peak level 100.0 %
Extraction speed 0.7 X
Range quality 100.0 %
Test CRC A42F92F5
Copy CRC A42F92F5
Copy OK

No errors occurred


AccurateRip summary

Track 1 accurately ripped (confidence 3) [DD03A2C1]
Track 2 accurately ripped (confidence 3) [345853FC]
Track 3 accurately ripped (confidence 3) [05E3ADD9]
Track 4 accurately ripped (confidence 3) [4A2BB38D]
Track 5 accurately ripped (confidence 3) [76BDBF84]
Track 6 accurately ripped (confidence 3) [765237F3]
Track 7 accurately ripped (confidence 3) [DAED6A85]
Track 8 accurately ripped (confidence 3) [5CAADFB0]
Track 9 accurately ripped (confidence 3) [E98F70E9]
Track 10 accurately ripped (confidence 3) [DFF277B7]

All tracks accurately ripped

End of status report

Audiochecker Log
AUDIOCHECKER v2.0 beta (build 457) - by Dester - opdester@freemail.hu
~~~~~~~~~~~~~~~~~~~~~~~~~~~~~~~~~~
-=== DO NOT EDIT THIS FILE! ===-

Path: ...\CD5 - 1973 - Ladies Invited

01 -=- The J. Geils Band - Ladies Invited.flac -=- CDDA (99%)

135471716

Accurip(CUETools 1.9.5)
[Verification date: 11.04.2011 12:21:26]
[Disc ID: 000faaeb-007c5411-6c09aa0a]
Track [ CRC ] Status
01 [dd03a2c1] (07/10) Accurately ripped as in pressing(s) #1
02 [345853fc] (07/10) Accurately ripped as in pressing(s) #1
03 [05e3add9] (07/10) Accurately ripped as in pressing(s) #1
04 [4a2bb38d] (07/10) Accurately ripped as in pressing(s) #1
05 [76bdbf84] (07/10) Accurately ripped as in pressing(s) #1
06 [765237f3] (07/10) Accurately ripped as in pressing(s) #1
07 [daed6a85] (07/10) Accurately ripped as in pressing(s) #1
08 [5caadfb0] (07/10) Accurately ripped as in pressing(s) #1
09 [e98f70e9] (07/10) Accurately ripped as in pressing(s) #1
10 [dff277b7] (07/10) Accurately ripped as in pressing(s) #1

Track [ CRC32 ] [W/O NULL] [ LOG ]
-- [A42F92F5] [901EEBDF] CRC32
01 [2C66DCE2] [EDBBC775]
02 [12AE7101] [5F8DA2E0]
03 [D304579A] [6C99DC6A]
04 [5FED63AD] [3FDA396B]
05 [E36A3035] [0C035EFA]
06 [817ACF8E] [9243AC9D]
07 [4B4C465A] [D0AE8AB1]
08 [4E1D9EC3] [8BC75908]
09 [7DCF75DE] [33F322E2]
10 [4095BF0D] [32696FCE]

Original Album Series: The J. Geils Band - back

Original Album Series: The J. Geils Band (2009) [5CD Box Set, Rhino 8122 79833 8]:

FileSonic:

CD1: Flac | MP3
CD2: Flac | MP3
CD3: Flac | MP3
CD4: Flac | MP3
CD5: Flac | MP3
Scans: Box Art

FileServe:

CD1: Flac | MP3
CD2: Flac | MP3
CD3: Flac | MP3
CD4: Flac | MP3
CD5: Flac | MP3
Scans: Box Art

Uploaded:

CD1: Flac | MP3
CD2: Flac | MP3
CD3: Flac | MP3
CD4: Flac | MP3
CD5: Flac | MP3
Scans: Box Art

In case you encounter dead links, please send me a private message.

All thanks go to ALLexxess

ADVERTISING » Click here to download Ebooks/Magazines for free « ADVERTISING


Posted By: flac jacket Date: 13 Apr 2011 18:01:52
I own all of the original U.S. releases of The J. Geils Band on CD plus the remastered versions of the first two albums.

Do you know if these are remastered versions???

Thank you for all of your fantastic posts!
Posted By: nunes54 Date: 13 Apr 2011 18:48:24
thanks for sharing his collection with us.
you're the man!
Posted By: Rumbalotte Date: 13 Apr 2011 19:48:31
Cheers from Ire-LaLa-land.
Posted By: Transylvanian Date: 13 Apr 2011 21:37:48
Great posting of early J Geils before they ground to a halt as a "top 40" band.
Great & enjoyable posting.....much appreciated!
Posted By: musician3 Date: 14 Apr 2011 19:53:55
Great Thank you
Posted By: syda Date: 16 Apr 2011 15:43:36
Thank you very much!

@flac_jacket: judging by the waveform, they've been remastered.
(cut off peaks)
Still... sounds very good.
Posted By: neng25082508 Date: 18 Jun 2011 15:35:46
I wanted freeze frame album lossless
can you upload this album?

thank you very much