Loading...

Gianna Nannini - Profumo (1986)

Posted By : olafweisse | Date : 18 Nov 2009 10:47:55 | Comments : 2 |
|



Gianna Nannini - Profumo (1986)
EAC AccurateRip | APE, IMG+CUE, LOG | 246,4 MB | MP3 CBR 320 Kbps | 82,8 MB | Complete Scans (300 dpi) | 85 MB
Pop-Rock | Label: Metronome | Catalog Number: 829 711-2 | Time: 39:36 | RAR | RS.com


Tracklisting:

1. Bello e Impossibile (4:43)
2. Profumo (3:53)
3. Come Una Schiava (5:17)
4. Gelosia (3:12)
5. Seduzione (3:33)
6. Quale Amore (5:09)
7. Avventuriera (4:07)
8. Quante Mani (3:34)
9. Terra Straniera (6:13)


Credits:

Vocals: Gianna Nannini
Guitars: Fabio Pianigiani, Rudy Spinello, Gianna Nannini
Bass: Hans Baar, Nikko Weidmann
Drums: Rudiger Braune
Keyboards & Synths: Rolf Lammers, Rainer Herzog, Fabio Pianigiani, Conny Plank, Gianna Nannini
Choir: Gina di Maio, Fabiana de Geronimo, Gloria Campoluongo
Saxophone: George Mayer
Trumpets: Gino Lattuca, Rudiger Baldauf
Altosax: Reto Mandelkow
Tenorsax: Jurgen Hiekel

Produced by Conny Plank & Gianna Nannini


EAC

Exact Audio Copy V0.99 prebeta 4 from 23. January 2008

EAC extraction logfile from 14. September 2009, 13:49

Gianna Nannini / Profumo

Used drive : PIONEER DVD-RW DVR-105 Adapter: 1 ID: 0

Read mode : Secure
Utilize accurate stream : Yes
Defeat audio cache : Yes
Make use of C2 pointers : No

Read offset correction : 48
Overread into Lead-In and Lead-Out : Yes
Fill up missing offset samples with silence : Yes
Delete leading and trailing silent blocks : No
Null samples used in CRC calculations : Yes
Used interface : Installed external ASPI interface

Used output format : Monkey's Audio Lossless Encoder
Selected bitrate : High Lossless Compression
Quality : High
Add ID3 tag : Yes
Command line compressor : C:\Program Files\Monkey's Audio\Monkey's Audio.exe


TOC of the extracted CD

Track | Start | Length | Start sector | End sector
---------------------------------------------------------
1 | 0:00.32 | 4:42.58 | 32 | 21239
2 | 4:43.15 | 3:53.15 | 21240 | 38729
3 | 8:36.30 | 5:17.22 | 38730 | 62526
4 | 13:53.52 | 3:11.43 | 62527 | 76894
5 | 17:05.20 | 3:32.57 | 76895 | 92851
6 | 20:38.02 | 5:09.28 | 92852 | 116054
7 | 25:47.30 | 4:06.70 | 116055 | 134574
8 | 29:54.25 | 3:33.35 | 134575 | 150584
9 | 33:27.60 | 6:12.35 | 150585 | 178519


Range status and errors

Selected range

Filename \\.PSF\Home\Desktop\ RIP\Gianna Nannini - Profumo\Gianna Nannini - Profumo.wav

Peak level 91.2 %
Range quality 100.0 %
Test CRC DF94DB79
Copy CRC DF94DB79
Copy OK

No errors occurred


AccurateRip summary

Track 1 accurately ripped (confidence 4) [598BF626]
Track 2 accurately ripped (confidence 4) [2A237EC1]
Track 3 accurately ripped (confidence 4) [B1B8A109]
Track 4 accurately ripped (confidence 4) [F59546E1]
Track 5 accurately ripped (confidence 4) [82344742]
Track 6 accurately ripped (confidence 4) [55A7538A]
Track 7 accurately ripped (confidence 4) [751996D4]
Track 8 accurately ripped (confidence 4) [5F832C15]
Track 9 accurately ripped (confidence 4) [E051CFB2]

All tracks accurately ripped

End of status report



Download-Links
Pass: www.AvaxHome.ru


Gianna Nannini on AvaxHome:

California (1979)
G. N. (1981)
Latin Lover (1982)
Puzzle (1984)
Tutto Live (1985)
Profumo (1986)
Malafemmina (1988)
Scandalo (1990)
X Forza E X Amore (1993)
Dispetto (1995)
Grazie (2006)
GiannaBest (2007) (MP3 only!)
Giannadream : Solo I Sogni Sono Veri (2009)


ADVERTISING » Free Fast Download! « ADVERTISING


Posted By: mad-mex Date: 18 Nov 2009 12:40:27
Thanks a lot, Olaf !
Posted By: Spanky2 Date: 22 Nov 2009 06:24:55
Thanks a lot!