Loading...

George Harrison And Friends - The Concert For Bangladesh (1971)

Posted By : v3122 | Date : 07 Mar 2011 11:02:47 | Comments : 6 |
|


George Harrison And Friends - The Concert For Bangladesh

George Harrison And Friends - The Concert For Bangladesh (1971)
2xDVD-9 | PAL 4:3 (720x576) VBR | Dolby AC3, 2 ch and 6 ch/DTS, 6 ch -> ~11.2 Gb
2CD | EAC | Flac(Tracks) + Cue + Log + Scans | MP3 CBR 320Kbps | 637 + 253 Mb | 2005, Deluxe, Epic 82876729862
2CD | EAC | APE(Image) + Cue + Log + Scans | MP3 CBR 320Kbps | 684 + 320 Mb | 1991, Japan, Epic/Sony ESCA 5470~1

The Concert for Bangladesh was the first benefit concert of its kind, in that it brought together an extraordinary assemblage of major artists collaborating for a common humanitarian cause, setting the precedent that music could be used to serve a higher cause. Bob Dylan, Ravi Shankar, Eric Clapton, Ringo Starr, Billy Preston and Leon Russell all took part. The concert sold out Madison Square Garden and along with the Grammy award-winning triple-album boxset, and the feature film, has generated millions of dollars for UNICEF and raised awareness for the organization around the world...


George Harrison And Friends - The Concert For Bangladesh - j_f

George Harrison And Friends - The Concert For Bangladesh (1971) [1991, Japan, Epic/Sony ESCA 5470~1]
2CD | Rock | EAC | APE(Image) + Cue + Log | MP3 CBR 320Kbps | 9 + 9 Tracks
Scans(300dpi) Included | 684 + 320 Mb | 1991, Japan, Epic/Sony ESCA 5470~1

George Harrison And Friends - The Concert For Bangladesh - j_cd1

Tracklist CD1:

1. George Harrison/Ravi Shankar Introduction
2. Bangla Dhun
3. Wah-Wah (George Harrison)
4. My Sweet Lord (George Harrison)
5. Awaiting on you All (George Harrison)
6. That's The Way God Planned It (Billy Preston)
7. It Don't Cоme Easy (Richard Starkey)
8. Beware of Darkness (George Harrison)
9. While My Guitar Gently Weeps (George Harrison)

EAC Log
Exact Audio Copy V0.99 prebeta 5 from 4. May 2009

EAC extraction logfile from 8. May 2010, 13:21

Various / Concert For Bangladesh (2CDs) (CD1)

Used drive : SONY DVD RW DW-Q58A Adapter: 1 ID: 1

Read mode : Secure
Utilize accurate stream : Yes
Defeat audio cache : Yes
Make use of C2 pointers : No

Read offset correction : 6
Overread into Lead-In and Lead-Out : No
Fill up missing offset samples with silence : Yes
Delete leading and trailing silent blocks : No
Null samples used in CRC calculations : Yes
Used interface : Installed external ASPI interface

Used output format : Internal WAV Routines
Sample format : 44.100 Hz; 16 Bit; Stereo


TOC of the extracted CD

Track | Start | Length | Start sector | End sector
---------------------------------------------------------
1 | 0:00.00 | 6:17.07 | 0 | 28281
2 | 6:17.07 | 17:22.28 | 28282 | 106459
3 | 23:39.35 | 3:45.25 | 106460 | 123359
4 | 27:24.60 | 4:49.62 | 123360 | 145096
5 | 32:14.47 | 3:07.08 | 145097 | 159129
6 | 35:21.55 | 4:30.07 | 159130 | 179386
7 | 39:51.62 | 3:09.00 | 179387 | 193561
8 | 43:00.62 | 6:41.00 | 193562 | 223636
9 | 49:41.62 | 4:52.68 | 223637 | 245604


Range status and errors

Selected range

Filename I:\George Harrison_The Concert For Bangladesh_2CD_1971\CD1\Various - Concert For Bangladesh (2CDs) (CD1).wav

Peak level 93.9 %
Range quality 100.0 %
Copy CRC 22C689FB
Copy OK

No errors occurred


AccurateRip summary

Track 1 not present in database
Track 2 not present in database
Track 3 not present in database
Track 4 not present in database
Track 5 not present in database
Track 6 not present in database
Track 7 not present in database
Track 8 not present in database
Track 9 not present in database

None of the tracks are present in the AccurateRip database

End of status report

Accurip(CUETools 1.9.5)
[Verification date: 05.03.2011 12:15:31]
[Disc ID: 00156e68-0095e1ae-810cca09]
Disk not present in database.

Track [ CRC32 ] [W/O NULL] [ LOG ]
-- [22C689FB] [39C69E96] CRC32
01 [9713D0AC] [13A8F6A3]
02 [78E792A5] [4481F266]
03 [70CD00CC] [7625D986]
04 [C1303938] [B40B69BB]
05 [45C163CF] [3C6E1328]
06 [88377602] [168C10B8]
07 [F690D4E7] [7DEC53F6]
08 [99DD97B6] [DF304DB7]
09 [4A1730E1] [156E735A]

George Harrison And Friends - The Concert For Bangladesh j_cd2

Tracklist CD2:

1. Medley:
- Jumpin' Jack Flash (M.Jagger-K.Richard)
- Youngblood (Lieber,Stoller-Pomus)
2. Here Comes The Sun (George Harrison)
3. A Hard Rain's Gonna Fall (Bob Dylan)
4. It Takes A Lot To Laugh, It Takes A Train To Cry (Bob Dylan)
5. Blowin' In The Wind (Bob Dylan)
6. Mr.Tambourine Man (Bob Dylan)
7. Just Like A Woman (Bob Dylan)
8. Something (George Harrison)
9. Bangla Desh (George Harrison)

EAC Log
Exact Audio Copy V0.99 prebeta 5 from 4. May 2009

EAC extraction logfile from 8. May 2010, 13:34

V.A. / The Concert For Bangla Desh (Disc-2)

Used drive : SONY DVD RW DW-Q58A Adapter: 1 ID: 1

Read mode : Secure
Utilize accurate stream : Yes
Defeat audio cache : Yes
Make use of C2 pointers : No

Read offset correction : 6
Overread into Lead-In and Lead-Out : No
Fill up missing offset samples with silence : Yes
Delete leading and trailing silent blocks : No
Null samples used in CRC calculations : Yes
Used interface : Installed external ASPI interface

Used output format : Internal WAV Routines
Sample format : 44.100 Hz; 16 Bit; Stereo


TOC of the extracted CD

Track | Start | Length | Start sector | End sector
---------------------------------------------------------
1 | 0:00.00 | 10:39.07 | 0 | 47931
2 | 10:39.07 | 3:48.00 | 47932 | 65031
3 | 14:27.07 | 5:36.00 | 65032 | 90231
4 | 20:03.07 | 3:12.00 | 90232 | 104631
5 | 23:15.07 | 4:45.00 | 104632 | 126006
6 | 28:00.07 | 4:40.00 | 126007 | 147006
7 | 32:40.07 | 5:28.00 | 147007 | 171606
8 | 38:08.07 | 4:53.00 | 171607 | 193581
9 | 43:01.07 | 5:05.53 | 193582 | 216509


Range status and errors

Selected range

Filename I:\George Harrison_The Concert For Bangladesh_2CD_1971\CD2\V.A. - The Concert For Bangla Desh (Disc-2).wav

Peak level 94.4 %
Range quality 100.0 %
Copy CRC 866CEAD8
Copy OK

No errors occurred


AccurateRip summary

Track 1 not present in database
Track 2 not present in database
Track 3 not present in database
Track 4 not present in database
Track 5 not present in database
Track 6 not present in database
Track 7 not present in database
Track 8 not present in database
Track 9 not present in database

None of the tracks are present in the AccurateRip database

End of status report

Accurip(CUETools 1.9.5)
[Verification date: 05.03.2011 12:16:40]
[Disc ID: 0011bd2d-007dbcce-820b4609]
Disk not present in database.

Track [ CRC32 ] [W/O NULL] [ LOG ]
-- [866CEAD8] [A8DD30F9] CRC32
01 [33DEF892] [77A593A3]
02 [75CA4CE0] [4401258D]
03 [2F9C0A13] [32529D7A]
04 [39560D79] [087AF191]
05 [FE027B33] [5F4B4BFA]
06 [26AA6BF8] [2AE6D07B]
07 [0A01D6C5] [459DFEF5]
08 [F9A2BC8E] [D19C73EF]
09 [42376E48] [F6449907]

George Harrison And Friends - The Concert For Bangladesh j_b

-------------------------------------------------------------------------------

George Harrison And Friends - The Concert For Bangladesh d_f

George Harrison And Friends - The Concert For Bangladesh (1971) [2005, Epic 82876729862, Deluxe Edition]
2CD | Rock | EAC | Flac(Tracks) + Cue + Log | MP3 CBR 320Kbps | 10 + 10 Tracks
Scans(300dpi) Included | 637 + 253 Mb | 2005, Epic 82876729862, Deluxe Edition

George Harrison And Friends - The Concert For Bangladesh d_cd1

Tracklist CD1:

01. Introduction By George Harrison & Ravi Shankar
02. Bangla Duhn
03. Wah-Wah
04. My Sweet Lord
05. Awaiting On You All
06. That's The Way God Planned It
07. It Don't Come Easy
08. Beware Of Darkness
09. Band Introduction
10. While My Guitar Gently Weeps

EAC Log
Exact Audio Copy V0.99 prebeta 5 from 4. May 2009

EAC extraction logfile from 14. March 2010, 20:26

Various / The Concert For Bangla Desh (Deluxe) - CD1

Used drive : PIONEER DVD-RW DVR-216D Adapter: 3 ID: 0

Read mode : Secure
Utilize accurate stream : Yes
Defeat audio cache : Yes
Make use of C2 pointers : No

Read offset correction : 96
Overread into Lead-In and Lead-Out : No
Fill up missing offset samples with silence : Yes
Delete leading and trailing silent blocks : No
Null samples used in CRC calculations : Yes
Used interface : Native Win32 interface for Win NT & 2000
Gap handling : Appended to previous track

Used output format : User Defined Encoder
Selected bitrate : 768 kBit/s
Quality : High
Add ID3 tag : No
Command line compressor : C:\Program Files\Exact Audio Copy\FLAC\FLAC.EXE
Additional command line options : -8 -V -T "ARTIST=%a" -T "TITLE=%t" -T "ALBUM=%g" -T "DATE=%y" -T "TRACKNUMBER=%n" -T "GENRE=%m" -T "COMMENT=EAC FLAC -8" %s


TOC of the extracted CD

Track | Start | Length | Start sector | End sector
---------------------------------------------------------
1 | 0:00.00 | 5:18.26 | 0 | 23875
2 | 5:18.26 | 16:39.35 | 23876 | 98835
3 | 21:57.61 | 3:30.04 | 98836 | 114589
4 | 25:27.65 | 4:35.55 | 114590 | 135269
5 | 30:03.45 | 3:00.22 | 135270 | 148791
6 | 33:03.67 | 4:20.12 | 148792 | 168303
7 | 37:24.04 | 3:00.43 | 168304 | 181846
8 | 40:24.47 | 3:35.65 | 181847 | 198036
9 | 44:00.37 | 2:38.59 | 198037 | 209945
10 | 46:39.21 | 4:53.42 | 209946 | 231962


Track 1

Filename H:\George Harrison\The Concert For Bangladesh (Deluxe)\New Rip\CD1\01 Introduction By George Harrison & Ravi Shankar.wav

Pre-gap length 0:00:02.00

Peak level 98.0 %
Track quality 100.0 %
Test CRC 93BCA33A
Copy CRC 93BCA33A
Accurately ripped (confidence 20) [01F4062B]
Copy OK

Track 2

Filename H:\George Harrison\The Concert For Bangladesh (Deluxe)\New Rip\CD1\02 Ravi Shankar - Bangla Dhun.wav

Pre-gap length 0:00:00.06

Peak level 98.7 %
Track quality 100.0 %
Test CRC 44AE4AB8
Copy CRC 44AE4AB8
Accurately ripped (confidence 21) [41A890F1]
Copy OK

Track 3

Filename H:\George Harrison\The Concert For Bangladesh (Deluxe)\New Rip\CD1\03 George Harrison - Wah-Wah.wav

Pre-gap length 0:00:00.08

Peak level 98.8 %
Track quality 100.0 %
Test CRC 98CF3017
Copy CRC 98CF3017
Accurately ripped (confidence 20) [67C7F01A]
Copy OK

Track 4

Filename H:\George Harrison\The Concert For Bangladesh (Deluxe)\New Rip\CD1\04 George Harrison - My Sweet Lord.wav

Pre-gap length 0:00:00.02

Peak level 100.0 %
Track quality 100.0 %
Test CRC B810106C
Copy CRC B810106C
Accurately ripped (confidence 22) [FFB6D59C]
Copy OK

Track 5

Filename H:\George Harrison\The Concert For Bangladesh (Deluxe)\New Rip\CD1\05 George Harrison - Awaiting On You All.wav

Peak level 98.6 %
Track quality 99.9 %
Test CRC 46F96D47
Copy CRC 46F96D47
Accurately ripped (confidence 21) [BD3D042A]
Copy OK

Track 6

Filename H:\George Harrison\The Concert For Bangladesh (Deluxe)\New Rip\CD1\06 Billy Preston - That's The Way God Planned It.wav

Peak level 98.8 %
Track quality 100.0 %
Test CRC 2015CF0A
Copy CRC 2015CF0A
Accurately ripped (confidence 21) [B7F742AC]
Copy OK

Track 7

Filename H:\George Harrison\The Concert For Bangladesh (Deluxe)\New Rip\CD1\07 Ringo Starr - It Don't Come Easy.wav

Peak level 98.7 %
Track quality 100.0 %
Test CRC 154BAB87
Copy CRC 154BAB87
Accurately ripped (confidence 22) [72A65843]
Copy OK

Track 8

Filename H:\George Harrison\The Concert For Bangladesh (Deluxe)\New Rip\CD1\08 George Harrison - Beware Of Darkness.wav

Pre-gap length 0:00:00.03

Peak level 98.9 %
Track quality 99.9 %
Test CRC 2FE7582D
Copy CRC 2FE7582D
Accurately ripped (confidence 22) [7A0A44CC]
Copy OK

Track 9

Filename H:\George Harrison\The Concert For Bangladesh (Deluxe)\New Rip\CD1\09 Band Introduction.wav

Pre-gap length 0:00:00.01

Peak level 98.0 %
Track quality 100.0 %
Test CRC A1451419
Copy CRC A1451419
Accurately ripped (confidence 20) [46DD37D4]
Copy OK

Track 10

Filename H:\George Harrison\The Concert For Bangladesh (Deluxe)\New Rip\CD1\10 George Harrison - While My Guitar Gently Weeps.wav

Peak level 98.8 %
Track quality 99.9 %
Test CRC 7A6798AA
Copy CRC 7A6798AA
Accurately ripped (confidence 21) [5C56E26E]
Copy OK


All tracks accurately ripped

No errors occurred

End of status report

Accurip(CUETools 1.9.5)
[Verification date: 05.03.2011 11:59:04]
[Disc ID: 00171025-00ae87bd-800c140a]
Track [ CRC ] Status
01 [01f4062b] (29/98) Accurately ripped as in pressing(s) #2
02 [41a890f1] (30/100) Accurately ripped as in pressing(s) #2
03 [67c7f01a] (29/101) Accurately ripped as in pressing(s) #2
04 [ffb6d59c] (31/103) Accurately ripped as in pressing(s) #2
05 [bd3d042a] (30/102) Accurately ripped as in pressing(s) #2
06 [b7f742ac] (30/102) Accurately ripped as in pressing(s) #2
07 [72a65843] (31/103) Accurately ripped as in pressing(s) #2
08 [7a0a44cc] (31/104) Accurately ripped as in pressing(s) #2
09 [46dd37d4] (29/101) Accurately ripped as in pressing(s) #2
10 [5c56e26e] (30/101) Accurately ripped as in pressing(s) #2
Offsetted by -664:
01 [1648bb44] (03/98) Accurately ripped as in pressing(s) #3
02 [9928161f] (03/100) Accurately ripped as in pressing(s) #3
03 [f98c211b] (03/101) Accurately ripped as in pressing(s) #3
04 [dde5e640] (03/103) Accurately ripped as in pressing(s) #3
05 [a796b3be] (03/102) Accurately ripped as in pressing(s) #3
06 [a389956c] (03/102) Accurately ripped as in pressing(s) #3
07 [cbbc19ab] (03/103) Accurately ripped as in pressing(s) #3
08 [8e3f0c3c] (03/104) Accurately ripped as in pressing(s) #3
09 [7ea5e9b9] (03/101) Accurately ripped as in pressing(s) #3
10 [5d8ddf71] (03/101) Accurately ripped as in pressing(s) #3
Offsetted by -42:
01 [651fb52e] (66/98) Accurately ripped as in pressing(s) #1
02 [35bced74] (67/100) Accurately ripped as in pressing(s) #1
03 [69dea986] (69/101) Accurately ripped as in pressing(s) #1
04 [ec49dc54] (69/103) Accurately ripped as in pressing(s) #1
05 [1cda8ca7] (69/102) Accurately ripped as in pressing(s) #1
06 [6295e6ee] (69/102) Accurately ripped as in pressing(s) #1
07 [e8a8d886] (69/103) Accurately ripped as in pressing(s) #1
08 [f132ae7a] (70/104) Accurately ripped as in pressing(s) #1
09 [09d408cf] (69/101) Accurately ripped as in pressing(s) #1
10 [763ecd07] (68/101) Accurately ripped as in pressing(s) #1

Track [ CRC32 ] [W/O NULL] [ LOG ]
-- [E7F0CB51] [9BBB3496]
01 [93BCA33A] [6A004790] CRC32
02 [44AE4AB8] [F80CDE04] CRC32
03 [98CF3017] [9A1E5C99] CRC32
04 [B810106C] [A5CDA5FC] CRC32
05 [46F96D47] [6D7345EC] CRC32
06 [2015CF0A] [1B1579EF] CRC32
07 [154BAB87] [61E90B53] CRC32
08 [2FE7582D] [1AA62E58] CRC32
09 [A1451419] [4F8FA5CD] CRC32
10 [7A6798AA] [C43EF983] CRC32

George Harrison And Friends - The Concert For Bangladesh d-cd2

Tracklist CD2:

01. Jumpin' Jack Flash / Young Blood
02. Here Comes The Sun
03. A Hard Rain's A-Gonna Fall
04. It Takes A Lot To Laugh, It Takes A Train To Cry
05. Blowin' In The Wind
06. Mr Tambourine Man
07. Just Like A Woman
08. Something
09. Bangla Desh
10. Love Minus Zero / No Limit (Additional track)

EAC Log
Exact Audio Copy V0.99 prebeta 5 from 4. May 2009

EAC extraction logfile from 14. March 2010, 21:48

Various / The Concert For Bangla Desh (Deluxe) - CD2

Used drive : PIONEER DVD-RW DVR-216D Adapter: 3 ID: 0

Read mode : Secure
Utilize accurate stream : Yes
Defeat audio cache : Yes
Make use of C2 pointers : No

Read offset correction : 96
Overread into Lead-In and Lead-Out : No
Fill up missing offset samples with silence : Yes
Delete leading and trailing silent blocks : No
Null samples used in CRC calculations : Yes
Used interface : Native Win32 interface for Win NT & 2000
Gap handling : Appended to previous track

Used output format : User Defined Encoder
Selected bitrate : 768 kBit/s
Quality : High
Add ID3 tag : No
Command line compressor : C:\Program Files\Exact Audio Copy\FLAC\FLAC.EXE
Additional command line options : -8 -V -T "ARTIST=%a" -T "TITLE=%t" -T "ALBUM=%g" -T "DATE=%y" -T "TRACKNUMBER=%n" -T "GENRE=%m" -T "COMMENT=EAC FLAC -8" %s


TOC of the extracted CD

Track | Start | Length | Start sector | End sector
---------------------------------------------------------
1 | 0:00.00 | 9:26.49 | 0 | 42498
2 | 9:26.49 | 2:58.56 | 42499 | 55904
3 | 12:25.30 | 5:44.04 | 55905 | 81708
4 | 18:09.34 | 3:07.10 | 81709 | 95743
5 | 21:16.44 | 4:06.62 | 95744 | 114255
6 | 25:23.31 | 4:44.56 | 114256 | 135611
7 | 30:08.12 | 4:48.52 | 135612 | 157263
8 | 34:56.64 | 3:42.13 | 157264 | 173926
9 | 38:39.02 | 5:01.48 | 173927 | 196549
10 | 43:40.50 | 4:19.34 | 196550 | 216008


Track 1

Filename H:\George Harrison\The Concert For Bangladesh (Deluxe)\New Rip\CD2\01 Young Blood.wav

Pre-gap length 0:00:02.00

Peak level 100.0 %
Track quality 100.0 %
Copy CRC FD719A13
Accurately ripped (confidence 20) [5C6F3572]
Copy OK

Track 2

Filename H:\George Harrison\The Concert For Bangladesh (Deluxe)\New Rip\CD2\02 George Harrison - Here Comes The Sun.wav

Peak level 98.4 %
Track quality 100.0 %
Copy CRC 5F845653
Accurately ripped (confidence 22) [3034F49A]
Copy OK

Track 3

Filename H:\George Harrison\The Concert For Bangladesh (Deluxe)\New Rip\CD2\03 Bob Dylan - A Hard Rain's A-Gonna Fall.wav

Peak level 98.0 %
Track quality 100.0 %
Copy CRC CE5B9534
Accurately ripped (confidence 21) [312134EF]
Copy OK

Track 4

Filename H:\George Harrison\The Concert For Bangladesh (Deluxe)\New Rip\CD2\04 Bob Dylan - It Takes A Lot To Laugh, It Takes A Train To Cry.wav

Peak level 98.0 %
Track quality 100.0 %
Copy CRC 0790C209
Accurately ripped (confidence 21) [0776933F]
Copy OK

Track 5

Filename H:\George Harrison\The Concert For Bangladesh (Deluxe)\New Rip\CD2\05 Bob Dylan - Blowin' In The Wind.wav

Peak level 98.0 %
Track quality 100.0 %
Copy CRC 2CB2D8A3
Accurately ripped (confidence 21) [5146D134]
Copy OK

Track 6

Filename H:\George Harrison\The Concert For Bangladesh (Deluxe)\New Rip\CD2\06 Bob Dylan - Mr. Tambourine Man.wav

Peak level 98.0 %
Track quality 100.0 %
Copy CRC 3D776D35
Accurately ripped (confidence 21) [2E7E3661]
Copy OK

Track 7

Filename H:\George Harrison\The Concert For Bangladesh (Deluxe)\New Rip\CD2\07 Bob Dylan - Just Like A Woman.wav

Peak level 98.0 %
Track quality 100.0 %
Copy CRC 9663A6DC
Accurately ripped (confidence 21) [8B892846]
Copy OK

Track 8

Filename H:\George Harrison\The Concert For Bangladesh (Deluxe)\New Rip\CD2\08 George Harrison - Something.wav

Peak level 100.0 %
Track quality 99.9 %
Copy CRC 1E63A648
Accurately ripped (confidence 22) [6DFC91B8]
Copy OK

Track 9

Filename H:\George Harrison\The Concert For Bangladesh (Deluxe)\New Rip\CD2\09 George Harrison - Bangla Desh.wav

Peak level 98.8 %
Track quality 100.0 %
Copy CRC 9E8C51D5
Accurately ripped (confidence 21) [AEEDF87B]
Copy OK

Track 10

Filename H:\George Harrison\The Concert For Bangladesh (Deluxe)\New Rip\CD2\10 No Limit.wav

Pre-gap length 0:00:06.31

Peak level 99.0 %
Track quality 100.0 %
Copy CRC AC72BE40
Accurately ripped (confidence 21) [DB494B74]
Copy OK


All tracks accurately ripped

No errors occurred

End of status report

Accurip(CUETools 1.9.5)
[Verification date: 05.03.2011 12:14:08]
[Disc ID: 00135ee3-00966c60-820b400a]
Track [ CRC ] Status
01 [5c6f3572] (29/101) Accurately ripped as in pressing(s) #2
02 [3034f49a] (31/103) Accurately ripped as in pressing(s) #2
03 [312134ef] (30/103) Accurately ripped as in pressing(s) #2
04 [0776933f] (30/103) Accurately ripped as in pressing(s) #2
05 [5146d134] (30/102) Accurately ripped as in pressing(s) #2
06 [2e7e3661] (30/101) Accurately ripped as in pressing(s) #2
07 [8b892846] (30/102) Accurately ripped as in pressing(s) #2
08 [6dfc91b8] (31/103) Accurately ripped as in pressing(s) #2
09 [aeedf87b] (30/103) Accurately ripped as in pressing(s) #2
10 [db494b74] (30/102) Accurately ripped as in pressing(s) #2
Offsetted by -664:
01 [bed48fc0] (03/101) Accurately ripped as in pressing(s) #3
02 [17808293] (03/103) Accurately ripped as in pressing(s) #3
03 [4120fae2] (03/103) Accurately ripped as in pressing(s) #3
04 [30b77ba4] (03/103) Accurately ripped as in pressing(s) #3
05 [ba666f3c] (03/102) Accurately ripped as in pressing(s) #3
06 [45ec0499] (03/101) Accurately ripped as in pressing(s) #3
07 [945f2b94] (03/102) Accurately ripped as in pressing(s) #3
08 [8eca3944] (03/103) Accurately ripped as in pressing(s) #3
09 [4962d6e6] (03/103) Accurately ripped as in pressing(s) #3
10 [0bf46894] (03/102) Accurately ripped as in pressing(s) #3
Offsetted by -641:
01 [834f396e] (69/101) Accurately ripped as in pressing(s) #1
02 [7767b66e] (69/103) Accurately ripped as in pressing(s) #1
03 [00d11379] (70/103) Accurately ripped as in pressing(s) #1
04 [27d7490c] (70/103) Accurately ripped as in pressing(s) #1
05 [eeb53314] (69/102) Accurately ripped as in pressing(s) #1
06 [d8d1d793] (68/101) Accurately ripped as in pressing(s) #1
07 [237d6c89] (69/102) Accurately ripped as in pressing(s) #1
08 [05130c64] (69/103) Accurately ripped as in pressing(s) #1
09 [aef79fe3] (70/103) Accurately ripped as in pressing(s) #1
10 [b888b2c0] (69/102) Accurately ripped as in pressing(s) #1

Track [ CRC32 ] [W/O NULL] [ LOG ]
-- [B8C252D6] [1B0C9124]
01 [FD719A13] [44FA86F1] CRC32
02 [5F845653] [922D3153] CRC32
03 [CE5B9534] [E2F02C8F] CRC32
04 [0790C209] [40339CB8] CRC32
05 [2CB2D8A3] [09CBBE68] CRC32
06 [3D776D35] [F388A436] CRC32
07 [9663A6DC] [6ADEA220] CRC32
08 [1E63A648] [A484DAF6] CRC32
09 [9E8C51D5] [29D8E1A7] CRC32
10 [AC72BE40] [82EA0DD7] CRC32

George Harrison And Friends - The Concert For Bangladesh - d_back

-------------------------------------------------------------------------------

George Harrison And Friends - The Concert For Bangladesh

George Harrison And Friends - The Concert For Bangladesh (1971)
2xDVD-9 | PAL 4:3 (720x576) VBR | Dolby AC3, 2 ch and 6 ch/DTS, 6 ch
Scans Included | ~11.20 Gb | 2005, AppleFilms Inc

George Harrison And Friends - The Concert For Bangladesh - dvd1

Tracklist DVD1 (The Concert For Bangladesh 1971):

01. Bangla Dhun (Performed by Ravi Shankar)
02. Wah-Wah (Performed by George Harrison)
03. My Sweet Lord (Performed by George Harrison)
04. Awaiting on You All (Performed by George Harrison)
05. That’s the Way God Planned It (Performed by Billy Preston)
06. It Don’t Come Easy (Performed by Ringo Starr)
07. Beware of Darkness (Featuring Leon Russell on guest vocals)
08. While My Guitar Gently Weeps (Featuring Eric Clapton on lead guitar)
09. Medley: Jumpin’ Jack Flash / Youngblood (Performed by Leon Russell, with additional vocals by George Harrison and Don Preston on Youngblood )
10. Here Comes the Sun (Featuring Pete Ham)
11. A Hard Rain’s A-Gonna Fall (Performed by Bob Dylan)
12. It Takes A Lot To Laugh, It Takes A Train To Cry (Performed by Bob Dylan)
13. Blowin’ in the Wind (Performed by Bob Dylan)
14. Just Like A Woman (Performed by Bob Dylan)
15. Something (Performed by George Harrison)
16. Bangla Desh (Performed by George Harrison)

George Harrison And Friends - The Concert For Bangladesh - dvd2

Tracklist DVD2 (The Concert For Bangladesh 2005, Special Features):

01. Documentary
02. The Concert For Bangladesh Revisited With George Harrison And Friends (45 mins.)
03. Background story of the show including interviews with cast and crew.
04. Previously Unseen Performances From The Rehearsals, Soundcheck And Afternoon Show:
- If Not For You
- Come On In My Kitchen
- Love Minus Zero/No Limit
05. Mini Features
06. The Making of the Film
07. The Making of the Album
08. The Original Artwork
09. Recollections - August 1st 1971
10. Photo Gallery
11. Take A Bow
12. Credits

George Harrison And Friends - The Concert For Bangladesh - s1

George Harrison And Friends - The Concert For Bangladesh - s2

George Harrison And Friends - The Concert For Bangladesh - s3


Download George Harrison And Friends - The Concert For Bangladesh (1971):

FileSonic
FileServe

In case you encounter dead links, please send me a private message.

All thanks go to Andrey_bz, dafnaplus and borsland

ADVERTISING » Very Fast Download! « ADVERTISING


Posted By: tbmusic Date: 07 Mar 2011 15:26:14
thank you so very much
Posted By: landhausabsolut Date: 10 Mar 2011 12:56:07
Thanks a lot! And kind regads...
Posted By: notorius Date: 03 Apr 2011 16:39:03
great, can´t wait to hear!
Posted By: libra_winmx Date: 01 May 2011 15:32:23
Dear v3122, hi,

Thanks a lot!!!
Gracias,

librawinmx, from Brazil, Rio de Janeiro
Posted By: ADioS Date: 04 Sep 2011 13:20:07
Very many thanks.
Great effort for a wonderful share!
Posted By: rogdave Date: 23 Apr 2012 19:20:30
Hi Dude...

please re-upload on another host because FileSonic & FileServe blocked.

thanks