Loading...

Faces - Five Guys Walk into a Bar... (2004) 4 CD Box Set [Re-Up]

Posted By : Designol | Date : 26 Jun 2012 11:30:00 | Comments : 10 |
|



Faces - Five Guys Walk into a Bar... (2004) 4 CD Box Set
EAC | FLAC | Image (Cue+Log) ~ 2 Gb (incl 5%) | Mp3 (CBR 320) ~ 720 Mb (incl 5%) | Full Scans (png) ~ 530 Mb
Genre: Hard Rock, Album Rock, Blues Rock, Rock & Roll | Label: Warner, Rhino | # 8122-78233-2 | Time: 05:07:45


From 1969 to 1975 the Faces - Rod Stewart, Ian McLagan, Ron Wood, Ronnie Lane, and Kenney Jones - played their loose and joyful blues and soul-inflected rock 'n' roll with reckless abandon, consummate skill, and immeasurable charm. For those few years they were arguably the greatest band on the planet, and their influence has resonated ever since through the music of countless acts, from the Sex Pistols to The Replacements to The Black Crowes, and on and on. After the Faces dissolved in 1975, Stewart went on to solo superstardom, Wood to the Stones, Jones to The Who, McLagan to world - class session work and his own recordings, and Lane to acclaimed solo projects before he succumbed to multiple sclerosis in 1997. Greater than the sum of its parts, the Faces made now - immortal music for which there will never, ever be a last call.


There has never been a better box set than the Faces' Five Guys Walk into a Bar.... There has never been a box that captures an artist so perfectly, nor has a box set taken greater advantage of unreleased and rare material, to the point where it seems as essential and vital as the released recordings. Simply put, there's never been a box set as necessary as this, since it tells the band's entire tale and explains exactly what the fuss is all about. Unfortunately, some explanations are in order, since the Faces never made it big, resigned to cult status in America and Britain alike. Nevertheless, if you love rock & roll with an all-consuming passion, you may consider the Faces the greatest rock & roll band ever. And you'd be right. Other bands were certainly bigger and plenty wielded a stronger influence, but the Faces were something unique, an endearingly ragged quintet that played raw, big-hearted rock & roll as hard as the Rolling Stones, but with a warm, friendly vibe that would have sounded utterly foreign coming from the Stones. At the turn of the '60s, that warmth was unusual in rock & roll, since most of the big bands were larger than life; even the Kinks, the quaintest and quietest of the titans of the late '60s, had a theatrical bent that lent them a mystique.

In contrast, the Faces were utterly without mystique. They were unpretentious to a fault, coming across like the lovable lads from the neighborhood who were always out for a good time, whether it was before, during, or after a gig. They were unassuming and mischievous, with their raggedness camouflaging a sweetness that flowed throughout their music; they were charming rogues, so endearing that even the infamously cranky, trendsetting British DJ John Peel had a soft spot a mile wide for them. That raggedness resulted in exhilarating music, but also made the Faces inconsistent on-stage and in the studio. At their peak, nobody could touch them, but even their greatest albums were sloppy, never maintaining their momentum. They would also throw away great songs on non-LP singles, and their live performances -- including BBC sessions for Peel -- often had a raucous energy not quite captured on their albums. All of these elements taken as a whole add up to a great band, but no single album, not even the first-rate 1999 compilation Good Boys When They're Asleep, captured each of these elements.

Five Guys Walk into a Bar... does. Produced and sequenced by their keyboardist, Ian McLagan, the set throws all conventional rules of box sets out the window. It's not assembled in a chronological order. A grand 43 of its 67 tracks are non-LP cuts and rarities, including a whopping 31 previously unreleased tracks. It has all the B-sides never released on CD. Several songs are repeated in alternate live or studio versions. Such a preponderance of rarities would usually mean that a box set is only for the devoted, but that's not the case here -- these rarities are the very reason why Five Guys Walk into a Bar... succeeds in a way none of their original albums do, since they fill in the gaps left behind on their four studio albums. This does mean that it features several Rod Stewart solo cuts that worked their way into the Faces' repertoire (partially because the band backed him on his solo albums, too), but that was an important part of their history (plus, the BBC version of "You're My Girl [I Don't Want to Discuss It]" is blistering hot), and while this showcases Stewart at his best -- he never was better than he was in the early '70s, whether it was fronting the Faces or on his solo records -- he never overshadows his mates on this box.

The focus is on the band as a whole, which means that the spotlight is shone on the late, perpetually underappreciated Ronnie Lane numerous times on each of the four discs, and that Ronnie Wood has his turn at the microphone on a wonderful live "Take a Look at the Guy." McLagan's song sequencing may appear to have no logic behind it, since it doesn't group recordings together by either era or scarcity, yet his seemingly haphazard approach makes musical and emotional sense, flowing like a set list yet remarkably maintaining momentum through its four lengthy discs. While it may sound like hyperbole, there's never a dull moment here, not a bad track among these 67 songs -- it's consistent in a way the Faces never were when they were together. It's a joyous, addictive listen, too. It sounds like a party, one where everybody's invited and where the music doesn't stop playing until the break of dawn. That makes a perfect tribute for a band that never got the respect they were due, and never made the great album they should have made. With Five Guys Walk into a Bar..., the Faces finally have that great album and not just that, they have a box set that's as infectious and satisfying as any classic rock & roll album and a box set that's quite possibly the greatest box set ever made. Plus, it's just one hell of a good time.
Review by Stephen Thomas Erlewine, Allmusic.com

Biography
When Steve Marriott left the Small Faces in 1969, the three remaining members brought in guitarist Ron Wood and lead singer Rod Stewart to complete the lineup and changed their name to the Faces, which was only appropriate since the group now only slightly resembled the mod-pop group of the past. Instead, the Faces were a rough, sloppy rock & roll band, able to pound out a rocker like "Had Me a Real Good Time," a blues ballad like "Tell Everyone," or a folk number like "Richmond" all in one album. Stewart, already becoming a star in his own right, let himself go wild with the Faces, tearing through covers and originals with abandon. While his voice didn't have the power of Stewart, bassist Ronnie Lane's songs were equally as impressive and eclectic. Wood's rhythm guitar had a warm, fat tone that was as influential and driving as Keith Richards' style.

Notorious for their hard-partying, boozy tours and ragged concerts, the Faces lived the rock & roll lifestyle to the extreme. When Stewart's solo career became more successful than the Faces, the band slowly became subservient to his personality; after their final studio album, Ooh La La, in 1973, Lane left the band. After a tour in 1974, the band called it quits. Wood joined the Rolling Stones, drummer Kenny Jones eventually became part of the Who, and keyboardist Ian McLagan became a sought-after supporting musician; Stewart became a superstar, although he never matched the simple charm of the Faces.

While they were together, the Faces never sold that many records and were never considered as important as the Stones, yet their music has proven extremely influential over the years. Many punk rockers in the late '70s learned how to play their instruments by listening to Faces records; in the '80s and '90s, guitar rock bands from the Replacements to the Black Crowes took their cue from the Faces as much as the Stones. Their reckless, loose, and joyous spirit stayed alive in much of the best rock & roll of the subsequent decades.

Wiki
Official website

Personnel:

Kenney Jones: drums, percussion (June 1969 - December 1975)
Ronnie Lane: bass, acoustic guitar, dobro, tambourine, vocals (June 1969 - June 1973)
Ian McLagan: organ, acoustic and electric pianos, harmonium, clavinet, harmony vocals (June 1969 - December 1975)
Rod Stewart: lead vocals; rhythm guitar on "Flags and Banners" and "I Feel So Good" (July 1969 - December 1975)
Ronnie Wood: lead, slide, and pedal steel guitars, bass, harmonica, vocals (June 1969 - December 1975)
Tetsu Yamauchi: bass (June 1973 - December 1975)




CD1:
EAC | FLAC | Image (Cue+Log) ~ 509 Mb (incl 5%) | Mp3 (CBR 320) ~ 182 Mb (incl 5%) | Time: 01:17:41


Tracklist:
01. Flying
02. On The Beach
03. Too Bad
04. If I'm On The Late Side
05. Debris
06. Jealous Guy *
07. Evil (Rehearsal) *
08. As Long As You Tell Him
09. Maggie May (Live / BBC) *
10. Cindy Incidentally (Alternate Mix) *
11. Maybe I'm Amazed (Live / BBC) *
12. Insurance
13. I Came Looking For You (Rehearsal) *
14. Last Orders Please
15. Wyndlesham Bay (Jodie) *
16. I Can Feel The Fire (Live) *
17. Tonight's Number
18. Come See Me Baby (The Cheater) *

* Previously Unissued


EAC log
Exact Audio Copy V1.0 beta 1 from 15. November 2010

EAC extraction logfile from 20. May 2011, 0:17

Faces / Five Guys Walk Into A Bar CD1

Used drive : HL-DT-STDVDRAM GSA-H60N Adapter: 2 ID: 0

Read mode : Secure
Utilize accurate stream : Yes
Defeat audio cache : Yes
Make use of C2 pointers : No

Read offset correction : 667
Overread into Lead-In and Lead-Out : No
Fill up missing offset samples with silence : Yes
Delete leading and trailing silent blocks : No
Null samples used in CRC calculations : Yes
Used interface : Native Win32 interface for Win NT & 2000

Used output format : Internal WAV Routines
Sample format : 44.100 Hz; 16 Bit; Stereo


TOC of the extracted CD

Track | Start | Length | Start sector | End sector
---------------------------------------------------------
1 | 0:00.00 | 4:18.44 | 0 | 19393
2 | 4:18.44 | 4:19.27 | 19394 | 38845
3 | 8:37.71 | 3:15.04 | 38846 | 53474
4 | 11:53.00 | 2:39.26 | 53475 | 65425
5 | 14:32.26 | 4:36.04 | 65426 | 86129
6 | 19:08.30 | 6:44.24 | 86130 | 116453
7 | 25:52.54 | 6:38.35 | 116454 | 146338
8 | 32:31.14 | 4:20.43 | 146339 | 165881
9 | 36:51.57 | 5:32.15 | 165882 | 190796
10 | 42:23.72 | 2:46.03 | 190797 | 203249
11 | 45:10.00 | 6:12.16 | 203250 | 231165
12 | 51:22.16 | 4:04.65 | 231166 | 249530
13 | 55:27.06 | 3:16.70 | 249531 | 264300
14 | 58:44.01 | 2:36.59 | 264301 | 276059
15 | 61:20.60 | 3:08.09 | 276060 | 290168
16 | 64:28.69 | 5:38.55 | 290169 | 315573
17 | 70:07.49 | 3:14.26 | 315574 | 330149
18 | 73:22.00 | 4:19.40 | 330150 | 349614


Range status and errors

Selected range

Filename C:\Documents and Settings\Администратор\Рабочий стол\Rip by ALLexxess\2009 Faces Five Guys Walk Into A Bar (4CD Box Set Warner Bros)\CD1\Faces - Five Guys Walk Into A Bar CD1.wav

Peak level 98.8 %
Extraction speed 0.3 X
Range quality 99.9 %
Test CRC 0863B1FD
Copy CRC 0863B1FD
Copy OK

No errors occurred


AccurateRip summary

Track 1 accurately ripped (confidence 3) [8E84CA92]
Track 2 accurately ripped (confidence 3) [AD9961B9]
Track 3 accurately ripped (confidence 3) [87ADD3CE]
Track 4 accurately ripped (confidence 2) [4630381A]
Track 5 accurately ripped (confidence 3) [5A975392]
Track 6 accurately ripped (confidence 2) [4DF224D2]
Track 7 accurately ripped (confidence 3) [5C0B455D]
Track 8 accurately ripped (confidence 3) [9F9EE30F]
Track 9 accurately ripped (confidence 3) [BFC0C994]
Track 10 accurately ripped (confidence 3) [CC226761]
Track 11 accurately ripped (confidence 3) [13A7A9D9]
Track 12 accurately ripped (confidence 3) [E16B0F9B]
Track 13 accurately ripped (confidence 3) [73F596B1]
Track 14 accurately ripped (confidence 3) [51001368]
Track 15 accurately ripped (confidence 3) [606A8D8D]
Track 16 accurately ripped (confidence 2) [BD812D79]
Track 17 accurately ripped (confidence 3) [163686C2]
Track 18 accurately ripped (confidence 2) [5E1920DA]

All tracks accurately ripped

End of status report

==== Log checksum 97FC7080814E922B7BBEC904DDFFC99A578DFA81D5BDA86977A98B7E07152568 ====




CD2:
EAC | FLAC | Image (Cue+Log) ~ 514 Mb (incl 5%) | Mp3 (CBR 320) ~ 186 Mb (incl 5%) | Time: 01:19:10


Tracklist:
01. Pool Hall Richard
02. You're My Girl (I Don't Want To Discuss It) (Live / BBC) *
03. Glad And Sorry
04. Shake, Shudder, Shiver (Rehearsal) *
05. Miss Judy's Farm (Live / BBC) *
06. Richmond
07. That's All You Need
08. Rear Wheel Skid
09. Maybe I'm Amazed
10. (If Loving You Is Wrong) I Don't Want To Be Right *
11. Take A Look At The Guy (Live) *
12. Flags And Banners
13. Bad 'N' Ruin (Live / BBC)
14. Around The Plynth
15. Sweet Lady Mary
16. Had Me A Real Good Time
17. Cut Across Shorty (Live / BBC) *

* Previously Unissued


EAC log
Exact Audio Copy V1.0 beta 1 from 15. November 2010

EAC extraction logfile from 20. May 2011, 17:22

Faces / Five Guys Walk Into A Bar CD2

Used drive : HL-DT-STDVDRAM GSA-H60N Adapter: 2 ID: 0

Read mode : Secure
Utilize accurate stream : Yes
Defeat audio cache : Yes
Make use of C2 pointers : No

Read offset correction : 667
Overread into Lead-In and Lead-Out : No
Fill up missing offset samples with silence : Yes
Delete leading and trailing silent blocks : No
Null samples used in CRC calculations : Yes
Used interface : Native Win32 interface for Win NT & 2000

Used output format : Internal WAV Routines
Sample format : 44.100 Hz; 16 Bit; Stereo


TOC of the extracted CD

Track | Start | Length | Start sector | End sector
---------------------------------------------------------
1 | 0:00.00 | 4:25.23 | 0 | 19897
2 | 4:25.23 | 5:21.59 | 19898 | 44031
3 | 9:47.07 | 3:07.06 | 44032 | 58062
4 | 12:54.13 | 3:39.64 | 58063 | 74551
5 | 16:34.02 | 4:38.70 | 74552 | 95471
6 | 21:12.72 | 3:03.26 | 95472 | 109222
7 | 24:16.23 | 5:07.15 | 109223 | 132262
8 | 29:23.38 | 4:45.55 | 132263 | 153692
9 | 34:09.18 | 3:39.56 | 153693 | 170173
10 | 37:48.74 | 4:54.49 | 170174 | 192272
11 | 42:43.48 | 4:53.14 | 192273 | 214261
12 | 47:36.62 | 2:02.68 | 214262 | 223479
13 | 49:39.55 | 5:25.52 | 223480 | 247906
14 | 55:05.32 | 5:55.43 | 247907 | 274574
15 | 61:01.00 | 5:51.48 | 274575 | 300947
16 | 66:52.48 | 5:53.15 | 300948 | 327437
17 | 72:45.63 | 6:25.06 | 327438 | 356318


Range status and errors

Selected range

Filename C:\Documents and Settings\Администратор\Рабочий стол\Rip by ALLexxess\2009 Faces Five Guys Walk Into A Bar (4CD Box Set Warner Bros)\CD2\Faces - Five Guys Walk Into A Bar CD2.wav

Peak level 98.8 %
Extraction speed 0.5 X
Range quality 100.0 %
Test CRC B04B561C
Copy CRC B04B561C
Copy OK

No errors occurred


AccurateRip summary

Track 1 accurately ripped (confidence 2) [D847A34E]
Track 2 accurately ripped (confidence 3) [988E9FD2]
Track 3 accurately ripped (confidence 3) [BF06D4B7]
Track 4 accurately ripped (confidence 3) [5F89212D]
Track 5 accurately ripped (confidence 3) [20A006D6]
Track 6 accurately ripped (confidence 3) [62BE2ECF]
Track 7 accurately ripped (confidence 3) [9022E035]
Track 8 accurately ripped (confidence 3) [9F78EC90]
Track 9 accurately ripped (confidence 3) [FEB0AF08]
Track 10 accurately ripped (confidence 3) [ADBACD0D]
Track 11 accurately ripped (confidence 3) [AE4E8A99]
Track 12 accurately ripped (confidence 3) [E169ABE0]
Track 13 accurately ripped (confidence 3) [0E1BDE20]
Track 14 accurately ripped (confidence 3) [96987368]
Track 15 accurately ripped (confidence 2) [016B70ED]
Track 16 accurately ripped (confidence 3) [51E02632]
Track 17 accurately ripped (confidence 2) [A22359E2]

All tracks accurately ripped

End of status report

==== Log checksum D10642163920D587EE6A761DC55DEE934F759C34FA6B653B14399C799EC948DE ====




CD3:
EAC | FLAC | Image (Cue+Log) ~ 511 Mb (incl 5%) | Mp3 (CBR 320) ~ 175 Mb (incl 5%) | Time: 01:14:24


Tracklist:
01. You're So Rude
02. (I Know) I'm Losing You (Live / BBC) *
03. Love Lives Here
04. I'd Rather Go Blind (Live) *
05. Hi-Heel Sneakers / Everybody Needs Somebody To Love *
06. Gettin' Hungry *
07. Silicone Grown
08. Oh Lord I'm Browned Off
09. Just Another Honky
10. Open To Ideas
11. Skewiff (Mend The Fuse)
12. Too Bad (Live) *
13. Rock *
14. Angel (Live / BBC) *
15. Stay With Me (Live / BBC) *
16. Ooh La La

* Previously Unissued


EAC log
Exact Audio Copy V1.0 beta 1 from 15. November 2010

EAC extraction logfile from 20. May 2011, 20:13

Faces / Five Guys Walk Into A Bar CD3

Used drive : HL-DT-STDVDRAM GSA-H60N Adapter: 2 ID: 0

Read mode : Secure
Utilize accurate stream : Yes
Defeat audio cache : Yes
Make use of C2 pointers : No

Read offset correction : 667
Overread into Lead-In and Lead-Out : No
Fill up missing offset samples with silence : Yes
Delete leading and trailing silent blocks : No
Null samples used in CRC calculations : Yes
Used interface : Native Win32 interface for Win NT & 2000

Used output format : Internal WAV Routines
Sample format : 44.100 Hz; 16 Bit; Stereo


TOC of the extracted CD

Track | Start | Length | Start sector | End sector
---------------------------------------------------------
1 | 0:00.00 | 3:43.55 | 0 | 16779
2 | 3:43.55 | 7:07.30 | 16780 | 48834
3 | 10:51.10 | 3:06.55 | 48835 | 62839
4 | 13:57.65 | 6:03.29 | 62840 | 90093
5 | 20:01.19 | 5:08.10 | 90094 | 113203
6 | 25:09.29 | 5:12.11 | 113204 | 136614
7 | 30:21.40 | 3:08.35 | 136615 | 150749
8 | 33:30.00 | 3:50.58 | 150750 | 168057
9 | 37:20.58 | 3:34.47 | 168058 | 184154
10 | 40:55.30 | 3:59.10 | 184155 | 202089
11 | 44:54.40 | 5:16.21 | 202090 | 225810
12 | 50:10.61 | 5:53.26 | 225811 | 252311
13 | 56:04.12 | 4:41.19 | 252312 | 273405
14 | 60:45.31 | 4:16.25 | 273406 | 292630
15 | 65:01.56 | 5:50.73 | 292631 | 318953
16 | 70:52.54 | 3:31.49 | 318954 | 334827


Range status and errors

Selected range

Filename C:\Documents and Settings\Администратор\Рабочий стол\Rip by ALLexxess\2009 Faces Five Guys Walk Into A Bar (4CD Box Set Warner Bros)\CD3\Faces - Five Guys Walk Into A Bar CD3.wav

Peak level 98.8 %
Extraction speed 0.1 X
Range quality 100.0 %
Test CRC DF823D1D
Copy CRC DF823D1D
Copy OK

No errors occurred


AccurateRip summary

Track 1 accurately ripped (confidence 3) [00173E12]
Track 2 accurately ripped (confidence 3) [42565D99]
Track 3 accurately ripped (confidence 3) [ED2E633C]
Track 4 accurately ripped (confidence 3) [38E7E3F1]
Track 5 accurately ripped (confidence 3) [F621F933]
Track 6 accurately ripped (confidence 3) [CE883000]
Track 7 accurately ripped (confidence 3) [2CA5D25A]
Track 8 accurately ripped (confidence 3) [3AD3737A]
Track 9 accurately ripped (confidence 3) [21838EEA]
Track 10 accurately ripped (confidence 3) [48E3A484]
Track 11 accurately ripped (confidence 3) [12C8ABD0]
Track 12 accurately ripped (confidence 3) [0E8F3903]
Track 13 accurately ripped (confidence 2) [F17DFA09]
Track 14 accurately ripped (confidence 3) [D69FB050]
Track 15 accurately ripped (confidence 2) [586F5598]
Track 16 accurately ripped (confidence 3) [85549422]

All tracks accurately ripped

End of status report

==== Log checksum 2B17E916A36879FBC78C44118AC6803C97C7221C8B8BACEF22B1E2A94F8D341C ====




CD4:
EAC | FLAC | Image (Cue+Log) ~ 511 Mb (incl 5%) | Mp3 (CBR 320) ~ 180 Mb (incl 5%) | Time: 01:16:28


Tracklist:
01. The Stealer (Live / BBC) *
02. Around The Plynth / Gasoline Alley (Live / BBC) *
03. You Can Make Me Dance, Sing Or Anything (Even Take The Dog For A Walk, Mend A Fuse, Hold Away The Ironing Board, Or Any Other Domestic Short Comings) (Live)
04. I Wish It Would Rain (Live)
05. Miss Judy's Farm (Live / BBC) *
06. Love In Vain (Live / BBC) *
07. My Fault (Live / BBC) *
08. I Feel So Good (Rehearsal) *
09. Miss Judy's Farm
10. Three Button Hand Me Down
11. Cindy Incidentally
12. Borstal Boys
13. Flying (Live / BBC) *
14. Bad 'N' Ruin
15. Dishevelment Blues
16. Stay With Me

* Previously Unissued


EAC log
Exact Audio Copy V1.0 beta 1 from 15. November 2010

EAC extraction logfile from 20. May 2011, 21:25

Faces / Five Guys Walk Into A Bar CD4

Used drive : HL-DT-STDVDRAM GSA-H60N Adapter: 2 ID: 0

Read mode : Secure
Utilize accurate stream : Yes
Defeat audio cache : Yes
Make use of C2 pointers : No

Read offset correction : 667
Overread into Lead-In and Lead-Out : No
Fill up missing offset samples with silence : Yes
Delete leading and trailing silent blocks : No
Null samples used in CRC calculations : Yes
Used interface : Native Win32 interface for Win NT & 2000

Used output format : Internal WAV Routines
Sample format : 44.100 Hz; 16 Bit; Stereo


TOC of the extracted CD

Track | Start | Length | Start sector | End sector
---------------------------------------------------------
1 | 0:00.00 | 3:17.67 | 0 | 14841
2 | 3:17.67 | 7:34.30 | 14842 | 48921
3 | 10:52.22 | 4:31.65 | 48922 | 69311
4 | 15:24.12 | 4:45.52 | 69312 | 90738
5 | 20:09.64 | 4:00.64 | 90739 | 108802
6 | 24:10.53 | 8:22.59 | 108803 | 146511
7 | 32:33.37 | 3:23.67 | 146512 | 161803
8 | 35:57.29 | 6:27.09 | 161804 | 190837
9 | 42:24.38 | 3:41.06 | 190838 | 207418
10 | 46:05.44 | 5:46.45 | 207419 | 233413
11 | 51:52.14 | 2:39.34 | 233414 | 245372
12 | 54:31.48 | 2:54.55 | 245373 | 258477
13 | 57:26.28 | 3:58.04 | 258478 | 276331
14 | 61:24.32 | 5:25.26 | 276332 | 300732
15 | 66:49.58 | 4:58.67 | 300733 | 323149
16 | 71:48.50 | 4:40.00 | 323150 | 344149


Range status and errors

Selected range

Filename C:\Documents and Settings\Администратор\Рабочий стол\Rip by ALLexxess\2009 Faces Five Guys Walk Into A Bar (4CD Box Set Warner Bros)\CD4\Faces - Five Guys Walk Into A Bar CD4.wav

Peak level 98.8 %
Extraction speed 0.3 X
Range quality 100.0 %
Test CRC E5B30BC2
Copy CRC E5B30BC2
Copy OK

No errors occurred


AccurateRip summary

Track 1 accurately ripped (confidence 2) [5CFAA2AF]
Track 2 accurately ripped (confidence 2) [AC024233]
Track 3 accurately ripped (confidence 2) [6F7F25D6]
Track 4 accurately ripped (confidence 2) [5E3557F5]
Track 5 accurately ripped (confidence 3) [33D9F81B]
Track 6 accurately ripped (confidence 3) [7901D367]
Track 7 accurately ripped (confidence 2) [32D7FD2F]
Track 8 accurately ripped (confidence 3) [C79C1C05]
Track 9 accurately ripped (confidence 3) [A676FB56]
Track 10 accurately ripped (confidence 2) [444B7E23]
Track 11 accurately ripped (confidence 3) [595AB9AF]
Track 12 accurately ripped (confidence 3) [7CEE5AE1]
Track 13 accurately ripped (confidence 2) [05C258EA]
Track 14 accurately ripped (confidence 2) [EE20AFA2]
Track 15 accurately ripped (confidence 2) [7DC65542]
Track 16 accurately ripped (confidence 2) [5D9B0C90]

All tracks accurately ripped

End of status report

==== Log checksum 3A54A0E5C399003B27CFB8DB84DFFB3FCF3509589C4EA009D4989958A64F1E93 ====




Linklist for download from Uploaded

Password: designol

http://uploaded.net/file/cwvhj5ht/Faces.FLAC.CD1.part1.rar
http://uploaded.net/file/lhsntg7j/Faces.FLAC.CD1.part2.rar
http://uploaded.net/file/hgeu7vri/Faces.FLAC.CD2.part1.rar
http://uploaded.net/file/1mvxjb6z/Faces.FLAC.CD2.part2.rar
http://uploaded.net/file/0s4gsbhv/Faces.FLAC.CD3.part1.rar
http://uploaded.net/file/q6yhcvdl/Faces.FLAC.CD3.part2.rar
http://uploaded.net/file/vpb61pr1/Faces.FLAC.CD4.part1.rar
http://uploaded.net/file/cughm4p1/Faces.FLAC.CD4.part2.rar

http://uploaded.net/file/hctg5zd7/Faces.mp3.CD1.rar
http://uploaded.net/file/q7s7s2ct/Faces.mp3.CD2.rar
http://uploaded.net/file/7sgfkorp/Faces.mp3.CD3.rar
http://uploaded.net/file/b5gpu0dh/Faces.mp3.CD4.rar

http://uploaded.net/file/pnxf2at9/Faces.scans.part1.rar
http://uploaded.net/file/l5mfnzlv/Faces.scans.part2.rar


Linklist for download from Turbobit


http://turbobit.net/i7j90z5ga2lu/Faces.FLAC.CD1.part1.rar.html
http://turbobit.net/svsoilqj865y/Faces.FLAC.CD1.part2.rar.html
http://turbobit.net/8ww0g39ojmfc/Faces.FLAC.CD2.part1.rar.html
http://turbobit.net/7njypsj5c34y/Faces.FLAC.CD2.part2.rar.html
http://turbobit.net/ahom8sad4xn1/Faces.FLAC.CD3.part1.rar.html
http://turbobit.net/zszkm4g0si7d/Faces.FLAC.CD3.part2.rar.html
http://turbobit.net/myzpn2l2ck4s/Faces.FLAC.CD4.part1.rar.html
http://turbobit.net/6vpp8lhegea2/Faces.FLAC.CD4.part2.rar.html

http://turbobit.net/t5tp1x6ovxig/Faces.mp3.CD1.rar.html
http://turbobit.net/y6nwbjju75he/Faces.mp3.CD2.rar.html
http://turbobit.net/m1jlqzlsys2c/Faces.mp3.CD3.rar.html
http://turbobit.net/h6029byk2cfq/Faces.mp3.CD4.rar.html

http://turbobit.net/qpv98ogz3aur/Faces.scans.part1.rar.html
http://turbobit.net/7ljpiibhd91m/Faces.scans.part2.rar.html

Password: designol
ADVERTISING » Very Fast Download! « ADVERTISING


Posted By: terra6 Date: 31 May 2011 12:40:19
Nice upload. Cheers
Posted By: mitches Date: 01 Jun 2011 06:21:26
Great share ındeed! Thanks a lot!
Posted By: Slappy9001 Date: 01 Jun 2011 22:13:03
Thank you so much for this!
Posted By: Flying Ed Date: 03 Jun 2011 11:50:27
Totally blown away with the continuing quality of your posts designol.
Keep up the great work, it is greatly appreciated mate.
Kind regards,
Flying Ed.
Posted By: umbilical Date: 06 Jun 2011 23:29:06
great! fresh rips of this, I reemplace my old rips...
Posted By: Designol Date: 14 Mar 2012 14:54:33
Posted By: barrospablito Date: 04 Aug 2012 12:08:33
Thanks! Downloading.
Posted By: TomInPhilly Date: 22 Nov 2012 23:01:02
Thank you!!!!!
Posted By: dickytimms Date: 11 Sep 2013 10:41:15
Thank you so much for this ALLexxess rip Designol - this Box Set is a classic too.
So glad to find the links still up. ;-)
Posted By: aeonsaway Date: 19 Dec 2013 18:42:42
Can't possibly thank you enough, so just once: thanks so much for keeping this available!