Loading...

Egg - The Polite Force (1971)

Posted By : uff | Date : 28 Sep 2012 23:36:21 | Comments : 4 |
|



Egg - The Polite Force (1971)
rock | 1cd | Eac Rip | Flac + Cue + Log | covers
Esoteric | 280Mb

Released in 1971, The Polite Force is the second album of British band Egg. It is often regarded as the band’s best work, being a much more serious effort than their debut album. The music is a fine example of early English progressive rock, bearing many similarities to Emerson, Lake & Palmer. Although the music of Egg does have occasional singing, it is mostly instrumental and as such relies on tight ensemble playing and interesting thematic and melodic material with extended chordal harmonies and irregular time signatures.

Track listing
01 - A Visit To Newport Hospital
02 - Contrasong
03 - Boilk (Incl. Bach- 'Durch Adams Fall Ist Ganz Verderbt')
04 - Long Piece No. 3- Part One
05 - Long Piece No. 3- Part Two
06 - Long Piece No. 3- Part Three
07 - Long Piece No. 3- Part Four

Personnel
-Dave Stewart - organ, piano, tone generator
-Mont Campbell - bass, vocals
-Clive Brooks – drums

eac log:
EAC extraction logfile from 9. December 2008, 20:41 for CD
Egg / The Polite Force

Used drive : TSSTcorpCD/DVDW TS-H552D Adapter: 0 ID: 0
Read mode : Secure with NO C2, accurate stream, disable cache
Read offset correction : 6
Overread into Lead-In and Lead-Out : No

Used output format : C:\Users\Pollux\Downloads\Syrup098b7\Syrup.exe (User Defined Encoder)
320 kBit/s
Additional command line options : REACT %o %s %d "%a" "%g" "%t" "%n" "%x" "%y" "%m" "%e" "%f" "%b" %r

Other options :
Fill up missing offset samples with silence : Yes
Delete leading and trailing silent blocks : No
Native Win32 interface for Win NT & 2000


Track 1
Filename I:\Eac\Egg - The Polite Force - 01 - A Visit To Newport Hospital.wav

Pre-gap length 0:00:02.00

Peak level 98.8 %
Track quality 100.0 %
Test CRC D00179AF
Copy CRC D00179AF
Copy OK

Track 2
Filename I:\Eac\Egg - The Polite Force - 02 - Contrasong.wav

Pre-gap length 0:00:01.65

Peak level 96.8 %
Track quality 100.0 %
Test CRC AADDBEBF
Copy CRC AADDBEBF
Copy OK

Track 3
Filename I:\Eac\Egg - The Polite Force - 03 - Boilk (Incl. Bach- 'Durch Adams Fall Ist Ganz Verderbt').wav

Pre-gap length 0:00:00.69

Peak level 91.3 %
Track quality 100.0 %
Test CRC 2C11670B
Copy CRC 2C11670B
Copy OK

Track 4
Filename I:\Eac\Egg - The Polite Force - 04 - Long Piece No. 3- Part One.wav

Peak level 94.6 %
Track quality 99.9 %
Test CRC FE8BE1A1
Copy CRC FE8BE1A1
Copy OK

Track 5
Filename I:\Eac\Egg - The Polite Force - 05 - Long Piece No. 3- Part Two.wav

Peak level 98.8 %
Track quality 100.0 %
Test CRC 76FEDF1A
Copy CRC 76FEDF1A
Copy OK

Track 6
Filename I:\Eac\Egg - The Polite Force - 06 - Long Piece No. 3- Part Three.wav

Peak level 98.8 %
Track quality 100.0 %
Test CRC 90BBAA88
Copy CRC 90BBAA88
Copy OK

Track 7
Filename I:\Eac\Egg - The Polite Force - 07 - Long Piece No. 3- Part Four.wav

Peak level 98.8 %
Track quality 100.0 %
Test CRC C177A202
Copy CRC C177A202
Copy OK

No errors occured


End of status report



cuetools report:
[CUETools log; Date: 2012.09.27. 11:28:11; Version: 2.1.4]
[CTDB TOCID: 0do4U3VAvjMgccp9qpZcrao8z3w-] found.
Track | CTDB Status
1 | (3/3) Accurately ripped
2 | (3/3) Accurately ripped
3 | (3/3) Accurately ripped
4 | (3/3) Accurately ripped
5 | (3/3) Accurately ripped
6 | (3/3) Accurately ripped
7 | (3/3) Accurately ripped
[AccurateRip ID: 000cfcc6-004ca756-500a1107] found.
Track [ CRC | V2 ] Status
01 [5c95e683|9c315d92] (05+03/34) Accurately ripped
02 [603ac633|af9edd87] (05+03/34) Accurately ripped
03 [9039fa14|6cd13d58] (05+03/34) Accurately ripped
04 [e7c72eb1|d924f2be] (05+03/34) Accurately ripped
05 [56f59eac|95b6c982] (05+03/34) Accurately ripped
06 [3f5d5d04|e4b3ff44] (05+03/30) Accurately ripped
07 [6b0eb688|6d68eabd] (05+03/33) Accurately ripped
Offsetted by -30:
01 [54abef96] (04/34) Accurately ripped
02 [4fce6412] (04/34) Accurately ripped
03 [a83cb3d1] (04/34) Accurately ripped
04 [4e78d8fb] (04/34) Accurately ripped
05 [a07e7006] (04/34) Accurately ripped
06 [58af0bfb] (04/30) Accurately ripped
07 [4dca1153] (04/33) Accurately ripped
Offsetted by -6:
01 [f4e24e72] (02/34) Accurately ripped
02 [5ca9e60e] (02/34) Accurately ripped
03 [ae881d34] (02/34) Accurately ripped
04 [0dd3c4ce] (02/34) Accurately ripped
05 [315a2085] (02/34) Accurately ripped
06 [a9dc0782] (02/30) Accurately ripped
07 [2128d13f] (02/33) Accurately ripped
Offsetted by 18:
01 [92d8af8e] (10/34) Accurately ripped
02 [6bc565ca] (10/34) Accurately ripped
03 [7f6290bc] (10/34) Accurately ripped
04 [dd62b1ea] (10/34) Accurately ripped
05 [71dffe09] (10/34) Accurately ripped
06 [b32da7f0] (09/30) Accurately ripped
07 [746b1135] (09/33) Accurately ripped
Offsetted by 30:
01 [60fbe0f4] (10/34) Accurately ripped
02 [742b24d0] (10/34) Accurately ripped
03 [f3314aac] (10/34) Accurately ripped
04 [35f297a4] (10/34) Accurately ripped
05 [6753b9aa] (10/34) Accurately ripped
06 [8350518d] (07/30) Accurately ripped
07 [dd210679] (10/33) Accurately ripped

Track Peak [ CRC32 ] [W/O NULL]
-- 98,8 [7EAA4DCF] [5BE87021]
01 98,8 [D00179AF] [25EF8CC9]
02 96,8 [AADDBEBF] [20C6BE4B]
03 91,3 [2C11670B] [0CAE47BA]
04 94,6 [FE8BE1A1] [1C6DA6BF]
05 98,8 [76FEDF1A] [7F260524]
06 98,8 [90BBAA88] [CEBC3590]
07 98,8 [C177A202] [A02BB969]


Thx to the original uploader

ADVERTISING » Free Fast Download! « ADVERTISING


Posted By: Red Star Date: 28 Sep 2012 23:50:29
Thank you!
Posted By: janbue3 Date: 29 Sep 2012 01:25:37
thanks if anyone has the first one 1970 same name that will be great !!
Posted By: heureka Date: 30 Sep 2012 09:16:27
@ janbue3

Send you a private message incl. working link.
heureka
Posted By: lzdl Date: 01 Oct 2012 18:30:33
thanks for the egg and the mirrors!