Loading...

Freddie Jackson - Just Like The First Time (1986)

Posted By : tiburon | Date : 25 Mar 2012 15:05:35 | Comments : 0 |
|



Freddie Jackson - Just Like The First Time (1986)
EAC 1.0b1 | FLAC tracks level 8 | Cue+Log+M3U | Full Scans 600dpi | 312MB + 5% Recovery
Genre: Soul, Funk

Freddie Jackson does not lose any momentum with this album. As with his initial project (Rock Me Tonight), he is in excellent company with four Top Ten songs. The initial release, "Tasty Love," has that standard Jackson rhythm arrangement, and the melody and his vocals remain inviting to the listener. This sumptuous single seduced the Billboard R&B charts for 26 weeks, claiming the number one spot for four consecutive weeks. "Have You Have Ever Loved Somebody" is a gracefully flowing midtempo ballad, in spite of its intermittent cadence in the verse. Jackson's passionate vocal execution is an irresistible magnet to the listener. There are no album fillers here - only quality songs.

Track List
01. Tasty Love 4:28
02. Have You Ever Loved Somebody 4:37
03. Look Around 5:05
04. Jam Tonight 4:32
05. Just Like The First Time 3:58
06. I Can't Let You Go 4:51
07. I Don't Want To Lose Your Love 4:38
08. Janay 4:58
09. Still Waiting 5:01
10. You Are My Love 5:25
11. A Little Bit More 4:55

musicians
Freddie Jackson - lead and background vocals
Barry Eastmond - keyboards, drum programming
Melba Moore - vocals on track 11
Eric Rehl - synthesizers
Curtis King - background vocals
Vanesse Thomas - background vocals
Paul Laurence - keyboards
Leslie Ming - drums
Audrey Wheeler - background vocals
Cindy Mizell - background vocals
Janice Dempsey - background vocals
Larry McCray - bass
Clive Smith - Fairlight programming
Donald Griffin - bass, guitar
Jimmy McKinley - keyboards
Timmy Alen - bass
Mike Campbell - guitar
Jenny Peters - background vocals

Produced by Paul Laurence, Barry Eastmond, Howard King, Garry Glenn and Gene McFadden

EAC Logfile

Exact Audio Copy V1.0 beta 1 from 15. November 2010

EAC extraction logfile from 3. November 2011, 6:19

Freddie Jackson / Just Like The First Time

Used drive : ATAPI iHAS424 Y Adapter: 0 ID: 3

Read mode : Secure
Utilize accurate stream : Yes
Defeat audio cache : Yes
Make use of C2 pointers : No

Read offset correction : 48
Overread into Lead-In and Lead-Out : No
Fill up missing offset samples with silence : Yes
Delete leading and trailing silent blocks : No
Null samples used in CRC calculations : Yes
Used interface : Native Win32 interface for Win NT & 2000
Gap handling : Appended to previous track

Used output format : User Defined Encoder
Selected bitrate : 768 kBit/s
Quality : High
Add ID3 tag : No
Command line compressor : C:\Program Files\Exact Audio Copy\Flac\flac.exe
Additional command line options : -8 -V -T "ARTIST=%a" -T "TITLE=%t" -T "ALBUM=%g" -T "DATE=%y" -T "TRACKNUMBER=%n" -T "TOTALTRACKS=%x" -T "GENRE=%m" -T "ALBUMARTIST=%v" -T "ALBUM ARTIST=%v" -T "COMMENT=EAC Secure Mode, Test & Copy, AccurateRip, FLAC -8" %s


TOC of the extracted CD

Track | Start | Length | Start sector | End sector
---------------------------------------------------------
1 | 0:00.00 | 4:28.37 | 0 | 20136
2 | 4:28.37 | 4:37.23 | 20137 | 40934
3 | 9:05.60 | 5:04.65 | 40935 | 63799
4 | 14:10.50 | 4:32.45 | 63800 | 84244
5 | 18:43.20 | 3:58.20 | 84245 | 102114
6 | 22:41.40 | 4:50.47 | 102115 | 123911
7 | 27:32.12 | 4:38.08 | 123912 | 144769
8 | 32:10.20 | 4:58.05 | 144770 | 167124
9 | 37:08.25 | 5:00.55 | 167125 | 189679
10 | 42:09.05 | 5:25.12 | 189680 | 214066
11 | 47:34.17 | 4:54.38 | 214067 | 236154


Track 1

Filename G:\Uploads\Freddie Jackson - Just Like The First Time (1986) [FLAC]\01 - Tasty Love.wav

Pre-gap length 0:00:02.00

Peak level 100.0 %
Extraction speed 2.4 X
Track quality 100.0 %
Test CRC 5E3837FB
Copy CRC 5E3837FB
Track not present in AccurateRip database
Copy OK

Track 2

Filename G:\Uploads\Freddie Jackson - Just Like The First Time (1986) [FLAC]\02 - Have You Ever Loved Somebody.wav

Pre-gap length 0:00:00.70

Peak level 100.0 %
Extraction speed 2.7 X
Track quality 100.0 %
Test CRC 237FA68C
Copy CRC 237FA68C
Track not present in AccurateRip database
Copy OK

Track 3

Filename G:\Uploads\Freddie Jackson - Just Like The First Time (1986) [FLAC]\03 - Look Around.wav

Pre-gap length 0:00:00.53

Peak level 89.9 %
Extraction speed 3.0 X
Track quality 100.0 %
Test CRC 595A23B3
Copy CRC 595A23B3
Track not present in AccurateRip database
Copy OK

Track 4

Filename G:\Uploads\Freddie Jackson - Just Like The First Time (1986) [FLAC]\04 - Jam Tonight.wav

Peak level 100.0 %
Extraction speed 2.9 X
Track quality 99.9 %
Test CRC 4290E13E
Copy CRC 4290E13E
Track not present in AccurateRip database
Copy OK

Track 5

Filename G:\Uploads\Freddie Jackson - Just Like The First Time (1986) [FLAC]\05 - Just Like The First Time.wav

Pre-gap length 0:00:01.50

Peak level 97.7 %
Extraction speed 3.4 X
Track quality 100.0 %
Test CRC 9895530E
Copy CRC 9895530E
Track not present in AccurateRip database
Copy OK

Track 6

Filename G:\Uploads\Freddie Jackson - Just Like The First Time (1986) [FLAC]\06 - I Can't Let You Go.wav

Pre-gap length 0:00:01.10

Peak level 96.5 %
Extraction speed 3.7 X
Track quality 100.0 %
Test CRC 7633386F
Copy CRC 7633386F
Track not present in AccurateRip database
Copy OK

Track 7

Filename G:\Uploads\Freddie Jackson - Just Like The First Time (1986) [FLAC]\07 - I Don't Want To Lose Your Love.wav

Peak level 100.0 %
Extraction speed 3.9 X
Track quality 100.0 %
Test CRC 37EFD7FC
Copy CRC 37EFD7FC
Track not present in AccurateRip database
Copy OK

Track 8

Filename G:\Uploads\Freddie Jackson - Just Like The First Time (1986) [FLAC]\08 - Janay.wav

Pre-gap length 0:00:00.53

Peak level 98.6 %
Extraction speed 4.1 X
Track quality 100.0 %
Test CRC ED592C83
Copy CRC ED592C83
Track not present in AccurateRip database
Copy OK

Track 9

Filename G:\Uploads\Freddie Jackson - Just Like The First Time (1986) [FLAC]\09 - Still Waiting.wav

Peak level 90.1 %
Extraction speed 4.3 X
Track quality 100.0 %
Test CRC B2265465
Copy CRC B2265465
Track not present in AccurateRip database
Copy OK

Track 10

Filename G:\Uploads\Freddie Jackson - Just Like The First Time (1986) [FLAC]\10 - You Are My Love.wav

Pre-gap length 0:00:00.50

Peak level 97.2 %
Extraction speed 4.6 X
Track quality 100.0 %
Test CRC 90E80759
Copy CRC 90E80759
Track not present in AccurateRip database
Copy OK

Track 11

Filename G:\Uploads\Freddie Jackson - Just Like The First Time (1986) [FLAC]\11 - A Little Bit More.wav

Pre-gap length 0:00:00.57

Peak level 100.0 %
Extraction speed 4.7 X
Track quality 100.0 %
Test CRC 2502BF3F
Copy CRC 2502BF3F
Track not present in AccurateRip database
Copy OK


None of the tracks are present in the AccurateRip database

No errors occurred

End of status report

==== Log checksum C63808FD9B35B3B5023E330493F1E1F92D70E68AC218D2B387D9B5FFD34EFA7B ====

Dynamic Range Analysis

--------------------------------------------------------------------------------
Analyzed: Freddie Jackson / Just Like The First Time
--------------------------------------------------------------------------------

DR Peak RMS Duration Track
--------------------------------------------------------------------------------
DR18 0.00 dB -20.57 dB 4:28 01-Tasty Love
DR14 0.00 dB -16.80 dB 4:37 02-Have You Ever Loved Somebody
DR12 -0.92 dB -16.50 dB 5:05 03-Look Around
DR18 0.00 dB -19.94 dB 4:33 04-Jam Tonight
DR12 -0.20 dB -15.38 dB 3:58 05-Just Like The First Time
DR14 -0.30 dB -16.40 dB 4:51 06-I Can't Let You Go
DR13 0.00 dB -15.03 dB 4:38 07-I Don't Want To Lose Your Love
DR13 -0.12 dB -16.04 dB 4:58 08-Janay
DR15 -0.90 dB -17.82 dB 5:01 09-Still Waiting
DR11 -0.24 dB -14.42 dB 5:25 10-You Are My Love
DR13 0.00 dB -15.11 dB 4:55 11-A Little Bit More
--------------------------------------------------------------------------------

Number of tracks: 11
Official DR value: DR14

Samplerate: 44100 Hz
Channels: 2
Bits per sample: 16
Bitrate: 847 kbps
Codec: FLAC
================================================================================



Rip by albundy



The Files Are Interchangeable
ADVERTISING » Click here to download Ebooks/Magazines for free « ADVERTISING


No comments for the news