Loading...

Barry White - Unlimited (4CD + DVD) (2009)

Posted By : mook45 | Date : 26 Dec 2010 18:30:00 | Comments : 16 |
|



Barry White - Unlimited (4CD + DVD) (2009)
EAC | FLAC IMG,CUE+LOG = 2GB | MP3@320 = 721MB | 600 dpi Scans = 3.1GB
NTSC DVD9 | PCM 2.0/DD 5.1/DTS 5.1 = 4.51GB
Soul | Label: Universal - B0013392-00 | FSe/FSo/DL




Great-sounding box set covering all the sides of Barry White: Walrus of Love, symphonic soul producer and co-arranger, and the man behind many another artist's success - check White Heat's jaw dropper on disc four.

Track listing
Disc 1

1. I'm Gonna Love You Just A Little More Baby
2. Never Never Gonna Give You Up
3. Honey Please Can't Ya See
4. Can't Get Enough Of Your Love Babe
5. You're The First The Last The Everything
6. I'll Do For You Anything You Want Me To
7. What Am I Gonna Do With You
8. Let Me Live My Life Lovin' You Babe
9. You See The Trouble With Me
10. Let The Music Play
11. Don't Make Me Wait Too Long
12. Your Love So Good I Can Taste It
13. I'm Qualified To Satisfy You
14. I've Got So Much To Give

Disc 2

1. Playing Your Game Baby
2. It's Ecstacy When You Lay Down Next To Me
3. You Turned My Whole World Around
4. Your Sweetness Is My Weakness
5. It Ain't Love Babe
6. Ghetto Letto
7. Sheet Music
8. Ella Es Todo Para Mi (She's Everything To Me)
9. Our Theme
10. Love Song
11. Good Dancin' Music
12. You're What's On My Mind
13. Super Lover
14. Don't Play Games

Disc 3

1. Midnight And You - The Love Unlimited Orchestra
2. Baby Blues - The Love Unlimited Orchestra
3. Love's Theme - The Love Unlimited Orchestra
4. My Sweet Summer Suite - The Love Unlimited Orchestra
5. Theme From King Kong - The Love Unlimited Orchestra
6. Sweet Moments - The Love Unlimited Orchestra
7. Whisper Softly
8. Welcome Aboard
9. Walkin' In The Rain With The One I Love - Love Unlimited
10. It May Be Winter Outside (But In My Heart It's Spring) - Love Unlimited
11. Under The Influence Of Love - Love Unlimited
12. I Belong To You - Love Unlimited
13. She's All I've Got - Love Unlimited
14. Hih Steppin' Hip Dressin' Fella - Love Unlimited

Disc 4

1. I Love You More And More - Tom Brock
2. If We Don't Make It Nobody Can - Tom Brock
3. Strange Funky Games And Things - Jay Dee
4. Be Fair To Me - Jimmie Cameron
5. Satin Soul - Gene Page
6. Just As Long As We're Together - Gloria Scott
7. Oh Love (Well We Finally Made It) - Smoke
8. You've Change - Jay Dee
9. Take A Look At Yourself (Before You Frown On Someone Else) - White Heat
10. How I Wish We Could Do It Again - Black Satin Feat. Fred Parris
11. Falling In Love Is A No No - Westwing
12. Have A Nice Weekend Baby - Tom Brock
13. What's Your Sign Girl - Danny Pearson
14. The Erotic Garden - Quincy Jones
15. In Your Wildest Dreams - Tina Turner

DVD Track Listing
Music videos, two remixes and two live clips

* Sho' You Right
* I Wanna Do It Good To Ya
* When Will I See You Again
* Follow That And See (Where It Leads Y'all)
* Put Me In Your Mix
* Dark And Lovely (You Over There) (With Isaac Hayes)
* Practice What You Preach
* Come On
* I Only Want To Be With You
* Just The Way You Are
* I Wanna Do It Good To Ya
* Let The Music Play
* Never, Never Gonna Give Ya Up
* You're The First, The Last, My Everything (With Luciano Pavarotti)

CD1 LOG
Exact Audio Copy V1.0 beta 1 from 15. November 2010

EAC extraction logfile from 19. December 2010, 21:00

Barry White / Unlimited CD1

Used drive : HP DVD Writer 1040r Adapter: 1 ID: 0

Read mode : Secure
Utilize accurate stream : Yes
Defeat audio cache : Yes
Make use of C2 pointers : No

Read offset correction : 6
Overread into Lead-In and Lead-Out : No
Fill up missing offset samples with silence : Yes
Delete leading and trailing silent blocks : No
Null samples used in CRC calculations : No
Used interface : Native Win32 interface for Win NT & 2000

Used output format : User Defined Encoder
Selected bitrate : 1024 kBit/s
Quality : High
Add ID3 tag : No
Command line compressor : C:\Program Files\Exact Audio Copy\FLAC\FLAC.EXE
Additional command line options : -6 -V -T "ARTIST=%a" -T "TITLE=%t" -T "ALBUM=%g" -T "DATE=%y" -T "TRACKNUMBER=%n" -T "GENRE=%m" -T "COMMENT=%e" %j--picture="%i"%j %s -o %d


TOC of the extracted CD

Track | Start | Length | Start sector | End sector
---------------------------------------------------------
1 | 0:00.00 | 6:31.74 | 0 | 29398
2 | 6:31.74 | 7:47.53 | 29399 | 64476
3 | 14:19.52 | 2:44.30 | 64477 | 76806
4 | 17:04.07 | 5:04.69 | 76807 | 99675
5 | 22:09.01 | 4:45.67 | 99676 | 121117
6 | 26:54.68 | 3:57.66 | 121118 | 138958
7 | 30:52.59 | 2:26.61 | 138959 | 149969
8 | 33:19.45 | 10:17.03 | 149970 | 196247
9 | 43:36.48 | 3:29.04 | 196248 | 211926
10 | 47:05.52 | 4:34.15 | 211927 | 232491
11 | 51:39.67 | 4:00.18 | 232492 | 250509
12 | 55:40.10 | 12:29.72 | 250510 | 306756
13 | 68:10.07 | 3:13.25 | 306757 | 321256
14 | 71:23.32 | 8:15.67 | 321257 | 358448


Range status and errors

Selected range

Filename C:\Users\Mike3\Desktop\Barry White Unlimited\Disc 1\Barry White - Unlimited CD1.wav

Peak level 100.0 %
Extraction speed 0.3 X
Range quality 100.0 %
Copy CRC 02D50A63
Copy OK

No errors occurred


AccurateRip summary

Track 1 accurately ripped (confidence 1) [3193FCF3]
Track 2 accurately ripped (confidence 1) [83C7572D]
Track 3 accurately ripped (confidence 1) [D5E09FF2]
Track 4 accurately ripped (confidence 1) [BD11BEE3]
Track 5 accurately ripped (confidence 1) [B6DEA6B2]
Track 6 accurately ripped (confidence 1) [E20A4389]
Track 7 accurately ripped (confidence 1) [68A43994]
Track 8 accurately ripped (confidence 1) [3351512D]
Track 9 accurately ripped (confidence 1) [8E76B4C2]
Track 10 accurately ripped (confidence 1) [4198143E]
Track 11 accurately ripped (confidence 1) [05AEA6F2]
Track 12 accurately ripped (confidence 1) [8C8BBB99]
Track 13 accurately ripped (confidence 1) [CDF576F5]
Track 14 accurately ripped (confidence 1) [0BF4C3C2]

All tracks accurately ripped

End of status report

==== Log checksum 07343EB80B96690B33A1B07C77120F2453A644AFC74E4C4D969BB5052AC63500 ====


CD2 LOG
Exact Audio Copy V1.0 beta 1 from 15. November 2010

EAC extraction logfile from 19. December 2010, 23:18

Barry White / Unlimited CD2

Used drive : HP DVD Writer 1040r Adapter: 1 ID: 0

Read mode : Secure
Utilize accurate stream : Yes
Defeat audio cache : Yes
Make use of C2 pointers : No

Read offset correction : 6
Overread into Lead-In and Lead-Out : No
Fill up missing offset samples with silence : Yes
Delete leading and trailing silent blocks : No
Null samples used in CRC calculations : No
Used interface : Native Win32 interface for Win NT & 2000

Used output format : User Defined Encoder
Selected bitrate : 1024 kBit/s
Quality : High
Add ID3 tag : No
Command line compressor : C:\Program Files\Exact Audio Copy\FLAC\FLAC.EXE
Additional command line options : -6 -V -T "ARTIST=%a" -T "TITLE=%t" -T "ALBUM=%g" -T "DATE=%y" -T "TRACKNUMBER=%n" -T "GENRE=%m" -T "COMMENT=%e" %j--picture="%i"%j %s -o %d


TOC of the extracted CD

Track | Start | Length | Start sector | End sector
---------------------------------------------------------
1 | 0:00.00 | 6:58.12 | 0 | 31361
2 | 6:58.12 | 5:35.62 | 31362 | 56548
3 | 12:33.74 | 7:44.39 | 56549 | 91387
4 | 20:18.38 | 6:17.48 | 91388 | 119710
5 | 26:36.11 | 4:19.68 | 119711 | 139203
6 | 30:56.04 | 5:56.05 | 139204 | 165908
7 | 36:52.09 | 4:53.59 | 165909 | 187942
8 | 41:45.68 | 4:01.72 | 187943 | 206089
9 | 45:47.65 | 4:33.15 | 206090 | 226579
10 | 50:21.05 | 5:49.68 | 226580 | 252822
11 | 56:10.73 | 4:17.56 | 252823 | 272153
12 | 60:28.54 | 4:56.50 | 272154 | 294403
13 | 65:25.29 | 5:50.01 | 294404 | 320654
14 | 71:15.30 | 7:19.70 | 320655 | 353649


Range status and errors

Selected range

Filename C:\Users\Mike3\Desktop\Barry White Unlimited\Disc 2\Barry White - Unlimited CD2.wav

Peak level 100.0 %
Extraction speed 0.3 X
Range quality 100.0 %
Copy CRC 31D7B3DC
Copy OK

No errors occurred


AccurateRip summary

Track 1 not present in database
Track 2 not present in database
Track 3 not present in database
Track 4 not present in database
Track 5 not present in database
Track 6 not present in database
Track 7 not present in database
Track 8 not present in database
Track 9 not present in database
Track 10 not present in database
Track 11 not present in database
Track 12 not present in database
Track 13 not present in database
Track 14 not present in database

None of the tracks are present in the AccurateRip database

End of status report

==== Log checksum B0C63605B7AAF8797F2E7CFC835F5789ADD25C783844152266E51B9382992760 ====


CD3 LOG
Exact Audio Copy V1.0 beta 1 from 15. November 2010

EAC extraction logfile from 23. December 2010, 21:27

Various / Barry White Unlimited [CD3]

Used drive : HP DVD Writer 1040r Adapter: 1 ID: 0

Read mode : Secure
Utilize accurate stream : Yes
Defeat audio cache : Yes
Make use of C2 pointers : No

Read offset correction : 6
Overread into Lead-In and Lead-Out : No
Fill up missing offset samples with silence : Yes
Delete leading and trailing silent blocks : No
Null samples used in CRC calculations : No
Used interface : Native Win32 interface for Win NT & 2000

Used output format : User Defined Encoder
Selected bitrate : 1024 kBit/s
Quality : High
Add ID3 tag : No
Command line compressor : C:\Program Files\Exact Audio Copy\FLAC\FLAC.EXE
Additional command line options : -6 -V -T "ARTIST=%a" -T "TITLE=%t" -T "ALBUM=%g" -T "DATE=%y" -T "TRACKNUMBER=%n" -T "GENRE=%m" -T "COMMENT=%e" %j--picture="%i"%j %s -o %d


TOC of the extracted CD

Track | Start | Length | Start sector | End sector
---------------------------------------------------------
1 | 0:00.00 | 5:32.21 | 0 | 24920
2 | 5:32.21 | 5:35.64 | 24921 | 50109
3 | 11:08.10 | 3:57.09 | 50110 | 67893
4 | 15:05.19 | 7:07.57 | 67894 | 99975
5 | 22:13.01 | 8:02.60 | 99976 | 136185
6 | 30:15.61 | 3:44.41 | 136186 | 153026
7 | 34:00.27 | 7:37.24 | 153027 | 187325
8 | 41:37.51 | 6:26.13 | 187326 | 216288
9 | 48:03.64 | 4:47.38 | 216289 | 237851
10 | 52:51.27 | 5:09.26 | 237852 | 261052
11 | 58:00.53 | 4:52.30 | 261053 | 282982
12 | 62:53.08 | 3:36.51 | 282983 | 299233
13 | 66:29.59 | 7:17.46 | 299234 | 332054
14 | 73:47.30 | 5:29.70 | 332055 | 356799


Range status and errors

Selected range

Filename C:\Users\Mike3\Desktop\To Do\Barry White Unlimited\Disc 3\Various - Barry White Unlimited [CD3].wav

Peak level 100.0 %
Extraction speed 0.2 X
Range quality 100.0 %
Copy CRC AC322B88
Copy OK

No errors occurred


AccurateRip summary

Track 1 not present in database
Track 2 not present in database
Track 3 not present in database
Track 4 not present in database
Track 5 not present in database
Track 6 not present in database
Track 7 not present in database
Track 8 not present in database
Track 9 not present in database
Track 10 not present in database
Track 11 not present in database
Track 12 not present in database
Track 13 not present in database
Track 14 not present in database

None of the tracks are present in the AccurateRip database

End of status report

==== Log checksum 1EC779EE9DDAE5995A5780D5419EDD598F6C92F02AC85A2EA1C5DC7ACD730C9C ====


CD4 LOG
Exact Audio Copy V1.0 beta 1 from 15. November 2010

EAC extraction logfile from 23. December 2010, 22:11

Various / Barry White Unlimited [CD4]

Used drive : HP DVD Writer 1040r Adapter: 1 ID: 0

Read mode : Secure
Utilize accurate stream : Yes
Defeat audio cache : Yes
Make use of C2 pointers : No

Read offset correction : 6
Overread into Lead-In and Lead-Out : No
Fill up missing offset samples with silence : Yes
Delete leading and trailing silent blocks : No
Null samples used in CRC calculations : No
Used interface : Native Win32 interface for Win NT & 2000

Used output format : User Defined Encoder
Selected bitrate : 1024 kBit/s
Quality : High
Add ID3 tag : No
Command line compressor : C:\Program Files\Exact Audio Copy\FLAC\FLAC.EXE
Additional command line options : -6 -V -T "ARTIST=%a" -T "TITLE=%t" -T "ALBUM=%g" -T "DATE=%y" -T "TRACKNUMBER=%n" -T "GENRE=%m" -T "COMMENT=%e" %j--picture="%i"%j %s -o %d


TOC of the extracted CD

Track | Start | Length | Start sector | End sector
---------------------------------------------------------
1 | 0:00.00 | 4:05.56 | 0 | 18430
2 | 4:05.56 | 4:16.49 | 18431 | 37679
3 | 8:22.30 | 6:47.03 | 37680 | 68207
4 | 15:09.33 | 5:12.37 | 68208 | 91644
5 | 20:21.70 | 4:24.54 | 91645 | 111498
6 | 24:46.49 | 3:39.52 | 111499 | 127975
7 | 28:26.26 | 3:33.13 | 127976 | 143963
8 | 31:59.39 | 3:42.73 | 143964 | 160686
9 | 35:42.37 | 5:30.66 | 160687 | 185502
10 | 41:13.28 | 5:45.04 | 185503 | 211381
11 | 46:58.32 | 4:20.56 | 211382 | 230937
12 | 51:19.13 | 3:20.62 | 230938 | 245999
13 | 54:40.00 | 4:26.38 | 246000 | 265987
14 | 59:06.38 | 4:20.71 | 265988 | 285558
15 | 63:27.34 | 8:52.53 | 285559 | 325511
16 | 72:20.12 | 3:41.08 | 325512 | 342094


Range status and errors

Selected range

Filename C:\Users\Mike3\Desktop\To Do\Barry White Unlimited\Disc 4\Various - Barry White Unlimited [CD4].wav

Peak level 100.0 %
Extraction speed 0.1 X
Range quality 100.0 %
Copy CRC ECF74AA9
Copy OK

No errors occurred


AccurateRip summary

Track 1 not present in database
Track 2 not present in database
Track 3 not present in database
Track 4 not present in database
Track 5 not present in database
Track 6 not present in database
Track 7 not present in database
Track 8 not present in database
Track 9 not present in database
Track 10 not present in database
Track 11 not present in database
Track 12 not present in database
Track 13 not present in database
Track 14 not present in database
Track 15 not present in database
Track 16 not present in database

None of the tracks are present in the AccurateRip database

End of status report

==== Log checksum 1D6CB1C75AAD530971855CBBB1E4CF7786DF308FEB65CF9BA7618871EBAEBD2A ====


Files
Flac 949 Kbps ABR = 2.08GB
Lame 320 = 721MB
600 DPI PDF Scans = 113MB
or
600 DPI TIFF Scans = 3.09GB
DVD9 = 4.51GB

Download all interchangeable files in txt file:

FSo

FSe

Duckload

No mirrors - but if someone wants to post a rip of the DVD go head


ADVERTISING » Click here to download Ebooks/Magazines for free « ADVERTISING


Posted By: Nick Cave Date: 24 Dec 2010 21:25:08
Uhhhhh Tremendo post mook45, Muchas Gracias y deseos de Felices Fiestas y un Excelente 2011 desde Argentina !!!!
Posted By: hobsbaum Date: 24 Dec 2010 22:03:41
600 DPI TIFF Scans = 3.09GB .... I love you !!!!!!!!!!!!
Thank you very much for this excellent offer.
Posted By: discofan Date: 25 Dec 2010 08:42:02
many many thanks & happy christmas for you!!
Posted By: tubesound Date: 25 Dec 2010 09:29:14
Please Hotfile Thanx and Merry Xmas
Posted By: wersollsschonsein Date: 25 Dec 2010 10:00:13
Cheers from Ireland & have a nice Xmas.
Posted By: R@F Date: 25 Dec 2010 10:05:49
@users
Please don't ask Hotfile, Megaupload or Rapidshare links. These servers had lost any parts of their confidence here. Next year AH's administration will be considered such requests as a sort of the trolling!
Posted By: Poena Date: 26 Dec 2010 11:24:23
"Please don't ask Hotfile, Megaupload or Rapidshare links. These servers had lost any parts of their confidence here. Next year AH's administration will be considered such requests as a sort of the trolling!"

Since Rapidshare & Hotfile links vanished off this site, it has become a sorry site to what it once was
Lately there's like 5 Video and 10 Music posts per day - 2 years ago that was posted in 1 hour

Now I see there is a new service added - Duckload - are you serious ?
Do you want me to pay subscriptions to 10 services per month ?

So I predict "Next year AH will be gone" and I will most probably be banned - do your best !

Bye
Posted By: R@F Date: 26 Dec 2010 11:38:25
@Poena
You are an idiot? What duckload? This one an additional choice of the author's of publication - all for us, free users. The additional mirrors - a bit easy for the downloaders!

AvaxHome strongly recomended to use only FileSonic & FileServe services. Any other, it's only for your personal choice.

So, always requested from the publishers the links from thats servers, not more. And don't waste your money for the others!

And next year AvaxHome will be better than ever, it's the fact! :P

"Bye", you sure?
Posted By: JGBE47 Date: 26 Dec 2010 12:55:30
Thanks a lot.

Happy Xmas to everyone.
Posted By: hobsbaum Date: 26 Dec 2010 18:55:00
I agree that is not polite to ask for more services, even more when the uploader provides 3 or 4 different choices ! And I never ask (and certainly not because of any rules).

But, dear R@F :

Perhaps FileSonic & FileServe are the best services (more reliabe, fast or anything else) but there is a BIG PROBLEM FOR FREE USERS.

They cannot handle with captchas, so a free user HAS TO STAY IN FRONT OF HIS COMPUTER ALL THE TIME !!!! He or she, cannot copy the links to the download manager at night, for example, and ..go to sleep or leave the house...... He or she HAS TO WRITE THEM MANUALLY and stay at the pc.
On the contrary with rapidshare and megaupload (and netload and maybe others) EVERYTHING IS OK. There is no such problem !

I believe that any uploader who cares about users should know that.

It took me a lot of time and many many hours in front of my computer to download this excellent mook45's offer, and I respect his choices.
But the problem remains.
No person can stay all the time in front of a computer, as I believe we all agree.

My best regards and a happy new year to everyone.
Posted By: skinman Date: 27 Dec 2010 12:28:16
Great Upload! Many Thanks for This. Maybe someone can help. I have some trouble with decompressing the DVD-files. When I try to burn the image on DVD the burner strikes and throw out the DVD. "Burning not sucessful". Does anyone else had the same problem?
Posted By: mook45 Date: 27 Dec 2010 13:02:07
skinman, are you using the MDS file to start the burn? With imgburn installed just left click on the MDS to start burning. Also, although the file size looks like a DVD5 it's slightly bigger so you'll need a DVD9 unless you reduce it with DVDFab etc.
Posted By: wersollsschonsein Date: 27 Dec 2010 14:06:11
@ R@F
hobsbaum and Poena are both 100% right & Avax is only changing the (must upload) hosters ever so often, because there must be plenty of money in it. For Avax that is!
We are all stranded here with perfectly good working hoster (not crap like you order to have) that we payed for and are now sitting idle; nobody is uploading to them. You can't force us all the time to pay for new hoster!

Have a nice 2011 and use your money carefully!
Posted By: skinman Date: 27 Dec 2010 18:15:06
@mook45: I tried with DVD Decrypter and Nero. Nothing worked. But I will try with imgburn. Thanks for the help. :-)
Posted By: RodStein Date: 31 Dec 2010 09:18:16
Thanks a lot!
Posted By: tmg555 Date: 19 Dec 2011 02:37:34
HAPPY CHRISTMAS YOUNG MAN 2011