Loading...

Soul Unlimited - Good Lovin (feat. Ellis Blake) [2012]

Posted By : jclane | Date : 06 Feb 2013 04:44:33 | Comments : 0 |
|



Soul Unlimited - Good Lovin (feat. Ellis Blake) [2012]
EAC Rip | FLAC Image + Cue + Log | Complete Scans Included | 311 MB
MP3 CBR @320 kbps (LAME 3.97) | Joint Stereo | 106 MB
Brimstone Entertainment | MUI-CD-10039 | R&B

This cd is loaded with love songs,dance songs, and fun songs. It is also exciting and gives you that good feeling of real music that is comprised of a mixture soul.rhythm & blues, and it's on the edge of a gospel feel.

Track Listing:

01. Good Lovin - 5:02
02. I'd Rather Have You Than Memories - 3:24
03. Diamond In The Rough - 2:47
04. Try Me - 4:21
05. I Love The Way You Look - 4:02
06. I Found Joy - 4:46
07. Cowboys - 5:00
08. I'm For Real - 4:36
09. Let's Do It Over And Try Again - 3:36
10. I'm Tired of Waiting On Your Love - 5:45

EAC Log

Exact Audio Copy V0.99 prebeta 5 from 4. May 2009

Отчёт EAC об извлечении, выполненном 20. января 2013, 14:07

Soul Unlimited / Good Lovin (feat. Ellis Blake)

Дисковод: PLEXTOR DVDR PX-880SA Adapter: 1 ID: 0

Режим чтения : Достоверность
Использование точного потока : Да
Отключение кэша аудио : Да
Использование указателей C2 : Нет

Коррекция смещения при чтении : 6
Способность читать области Lead-in и Lead-out : Нет
Заполнение пропущенных сэмплов тишиной : Да
Удаление блоков с тишиной в начале и конце : Нет
При вычислениях CRC использовались нулевые сэмплы : Да
Интерфейс : Установленный внешний ASPI-интерфейс

Выходной формат : Пользовательский кодировщик
Выбранный битрейт : 1024 kBit/s
Качество : Высокий
Добавление ID3-тэга : Нет
Утилита сжатия : C:\Program Files\Exact Audio Copy\FLAC\FLAC.EXE
Дополнительные параметры : -10 -V -T "ARTIST=%a" -T "TITLE=%t" -T "ALBUM=%g" -T "DATE=%y" -T "TRACKNUMBER=%n" -T "GENRE=%m" -T "COMMENT=%e" %s -o %d

TOC извлечённого CD

Трек | Старт | Длительность | Начальный сектор | Конечный сектор
---------------------------------------------------------------------
1 | 0:00.00 | 5:02.54 | 0 | 22703
2 | 5:02.54 | 3:24.01 | 22704 | 38004
3 | 8:26.55 | 2:47.51 | 38005 | 50580
4 | 11:14.31 | 4:21.31 | 50581 | 70186
5 | 15:35.62 | 4:02.31 | 70187 | 88367
6 | 19:38.18 | 4:46.42 | 88368 | 109859
7 | 24:24.60 | 5:00.13 | 109860 | 132372
8 | 29:24.73 | 4:36.06 | 132373 | 153078
9 | 34:01.04 | 3:36.03 | 153079 | 169281
10 | 37:37.07 | 5:45.73 | 169282 | 195229

Характеристики диапазона извлечения и сообщения об ошибках

Выбранный диапазон

Имя файла D:\BitComet\Soul Unlimited - Good Lovin(2012)(flac)\Soul Unlimited - Good Lovin (feat. Ellis Blake).wav

Пиковый уровень 100.0 %
Качество диапазона 99.9 %
CRC теста CF8128EE
CRC копии CF8128EE
Копирование... OK

Ошибок не произошло

AccurateRip: сводка

Трек 1 нет в базе данных
Трек 2 нет в базе данных
Трек 3 нет в базе данных
Трек 4 нет в базе данных
Трек 5 нет в базе данных
Трек 6 нет в базе данных
Трек 7 нет в базе данных
Трек 8 нет в базе данных
Трек 9 нет в базе данных
Трек 10 нет в базе данных

Ни одного трека нет в базе AccurateRip

Конец отчёта


Personnel:

* Julian Block
* Curtis Fisher
* Steve Gibson
* T.C Bostic
* Ernest Young

Released Date: 2012
Format: CD, Album
Length: 43:23
Producer: T.C Bostic, Ellis Blake



******************************************************

CD Rip by izia1956

The files are interchangeable!

Uploaded
Lossless part1 | Lossless part2 | MP3

Depositfiles
Lossless part1 | Lossless part2 | MP3

Rapidgator
Lossless part1 | Lossless part2 | MP3


pw: www.AvaxHome.ru
ADVERTISING » Free Fast Download! « ADVERTISING


No comments for the news