Loading...

Judas Priest - The Chosen Few (2011)

Posted By : rd | Date : 20 Feb 2012 02:24:46 | Comments : 4 |
|



Judas Priest - The Chosen Few (2011)
EAC Rip | FLAC + CUE + LOG | 627 Mb | Covers | 77:05
Genre: Heavy Metal

British heavy metal legends JUDAS PRIEST released a new compilation album... The collection contains songs that were selected by some of the biggest names of the hard rock/heavy metal world, including KISS' Gene Simmons, Ozzy Osbourne, Slash, METALLICA's James Hetfield and Lars Ulrich, Alice Cooper and SLIPKNOT's Corey Taylor
"This is a collection of songs chosen by our friends and respected peers," PRIEST frontman Rob Halford tells RollingStone.com. "So we hope all the metal maniacs out there will rock out to the tunes enjoyed by metal legends."


Release Date: 11.10.2011
Label: Legacy/Sony


Tracklist:

01. Diamonds And Rust (1977) - chosen by Joe Elliott (DEF LEPPARD)
02. Dissident Aggressor (1977) - chosen by Steve Vai and Geoff Tate (QUEENSRYCHE)
03. Exciter (1978) - chosen by ACCEPT
04. Beyond The Realms Of Death (1978) - chosen by Lars Ulrich (METALLICA)
05. Delivering The Goods (1979) - chosen by Kerry King (SLAYER)
06. The Green Manalishi (with the Two-Pronged Crown) (1979) - chosen by David Coverdale (WHITESNAKE) and Randy Blythe (LAMB OF GOD)
07. The Ripper (1979) - chosen by Ozzy Osbourne
08. Victim Of Changes (1979) - chosen by James Hetfield (METALLICA)
09. Breaking The Law (1980) - chosen by Lemmy (MOTORHEAD)
10. Rapid Fire (1980) - chosen by Vinnie Paul (PANTERA, HELLYEAH)
11. Grinder (1980) - chosen by Zakk Wylde (BLACK LABEL SOCIETY)
12. Living After Midnight (1980) - chosen by Alice Cooper and Geezer Butler (BLACK SABBATH)
13. Screaming For Vengeance (1982) - chosen by Slash (GUNS N ROSES)
14. You’ve Got Another Thing Coming (1982) - chosen by Klaus Meine (SCORPIONS) & Corey Taylor (SLIPKNOT)
15. The Sentinel (1984) - chosen by Chris Jericho (FOZZY)
16. Turbo Lover (1986) - chosen by Jonathan Davis (KORN)
17. Painkiller (1990) - chosen by Joe Satriani

LOG
Exact Audio Copy V1.0 beta 3 from 29. August 2011

EAC extraction logfile from 18. February 2012, 15:44

Judas Priest / THE CHOSEN FEW

Used drive : MATSHITABD-CMB UJ242AS Adapter: 0 ID: 1

Read mode : Secure
Utilize accurate stream : Yes
Defeat audio cache : Yes
Make use of C2 pointers : No

Read offset correction : 103
Overread into Lead-In and Lead-Out : No
Fill up missing offset samples with silence : Yes
Delete leading and trailing silent blocks : No
Null samples used in CRC calculations : Yes
Used interface : Native Win32 interface for Win NT & 2000

Used output format : User Defined Encoder
Selected bitrate : 1024 kBit/s
Quality : High
Add ID3 tag : Yes
Command line compressor : C:\Program Files (x86)\Exact Audio Copy\Flac\flac.exe
Additional command line options : -6 -V %source%


TOC of the extracted CD

Track | Start | Length | Start sector | End sector
---------------------------------------------------------
1 | 0:00.00 | 3:24.47 | 0 | 15346
2 | 3:24.47 | 3:06.37 | 15347 | 29333
3 | 6:31.09 | 5:32.20 | 29334 | 54253
4 | 12:03.29 | 6:50.01 | 54254 | 85004
5 | 18:53.30 | 4:16.41 | 85005 | 104245
6 | 23:09.71 | 3:24.64 | 104246 | 119609
7 | 26:34.60 | 2:42.37 | 119610 | 131796
8 | 29:17.22 | 7:13.05 | 131797 | 164276
9 | 36:30.27 | 2:35.06 | 164277 | 175907
10 | 39:05.33 | 4:02.35 | 175908 | 194092
11 | 43:07.68 | 3:57.37 | 194093 | 211904
12 | 47:05.30 | 3:30.27 | 211905 | 227681
13 | 50:35.57 | 4:44.25 | 227682 | 249006
14 | 55:20.07 | 5:06.61 | 249007 | 272017
15 | 60:26.68 | 5:01.11 | 272018 | 294603
16 | 65:28.04 | 5:30.40 | 294604 | 319393
17 | 70:58.44 | 6:06.52 | 319394 | 346895


Range status and errors

Selected range

Filename C:\EACrip\Judas Priest - THE CHOSEN FEW.wav

Peak level 97.0 %
Extraction speed 4.6 X
Range quality 100.0 %
Test CRC 59E78994
Copy CRC 59E78994
Copy OK

No errors occurred


AccurateRip summary

Track 1 accurately ripped (confidence 2) [AA659D5D] (AR v1)
Track 2 accurately ripped (confidence 2) [FCB51995] (AR v1)
Track 3 accurately ripped (confidence 2) [D6D49C9C] (AR v1)
Track 4 accurately ripped (confidence 2) [8BCAF6D3] (AR v1)
Track 5 accurately ripped (confidence 2) [BFC44A0A] (AR v1)
Track 6 accurately ripped (confidence 2) [83E73087] (AR v1)
Track 7 not present in database
Track 8 accurately ripped (confidence 2) [72E4D362] (AR v1)
Track 9 accurately ripped (confidence 2) [58560A50] (AR v1)
Track 10 accurately ripped (confidence 2) [239874B3] (AR v1)
Track 11 accurately ripped (confidence 2) [D345D15C] (AR v1)
Track 12 accurately ripped (confidence 2) [EB00CDCD] (AR v1)
Track 13 accurately ripped (confidence 2) [047F420A] (AR v1)
Track 14 accurately ripped (confidence 2) [743EC4F2] (AR v1)
Track 15 accurately ripped (confidence 2) [5D23D06E] (AR v1)
Track 16 accurately ripped (confidence 2) [CDB9D9D6] (AR v1)
Track 17 accurately ripped (confidence 2) [5CD25B42] (AR v1)

16 track(s) accurately ripped
1 track(s) not present in the AccurateRip database

Some tracks could not be verified as accurate

End of status report

==== Log checksum 1FE406D37B96280110A4493B749C948FE0539FE8EB6D2C56A546CAC7B54BF79E ====

Прошу обратить внимание на то, что весь материал, представленный выше, предназначен исключительно для ознакомления! Приобретайте, пожалуйста, легальные диски, которые вне всякого сомнения станут достойным украшением вашей коллекции!

ADVERTISING » Very Fast Download! « ADVERTISING


Posted By: MikiSuri Date: 23 Feb 2012 00:14:35
Hi, have you file in .ape format ?
Thank's
Posted By: chincho Date: 27 Feb 2012 10:54:42
Thank you very much.
Posted By: amitnewyork Date: 29 Feb 2012 15:58:37
UB/GB/SW gone. UP and FP suck.
Posted By: Laserman59 Date: 05 Mar 2012 01:25:52
Thank you rd for this great share. :-)