Loading...

Raimundos – MTV ao Vivo

Posted By : vozdobrasil | Date : 01 May 2011 08:19:59 | Comments : 4 |
|


Raimundos - MTV ao Vivo

Raimundos – MTV ao Vivo (2000)
EAC Rip | Flac CUE Log | 401,62 + 451,92 MB | MP3 320 Kbps CBR | 273,48 MB | Covers
Rock – Pop - Latin - Brazilian | Label: Waner Music Brasil

MTV ao Vivo is the sixth album and first live work of Brazilian band Raimundos Hardcore Punk, released in 2000. It was also the first album of the series MTV ao Vivo.

MTV ao vivo é o sexto álbum e primeiro trabalho ao vivo da banda brasileira de Hardcore Punk Raimundos, lançado em 2000. Foi também o primeiro álbum da série MTV ao Vivo.
Gravado em oito shows da turnê Só no Forévis nas cidades de São Paulo e Curitiba, o álbum é um apanhado geral da carreira da banda, devido a seu vasto repertório formado por sucessos como "Mulher de Fases", "Tora-Tora", "Puteiro em João Pessoa", "Papeau Nuky Doe" (única canção oriunda do álbum especial Cesta Básica), "Eu Quero Ver o Oco", "Andar na Pedra" e "Esporrei na Manivela", além da inédita "Reggae do Manero". Como faixa-bônus, o CD inclui uma regravação em estúdio de "20 e Poucos Anos", sucesso do cantor romântico Fábio Jr..
Foi o último trabalho da banda com o vocalista Rodolfo Abrantes.


Tracklist

CD: Raimundos - MTV Ao Vivo - CD1
YEAR: 2000

01. Fome Do Cão
02. Mato O Véio
03. Carrão De Dois
04. Nega Jurema
05. Be A Bá
06. Pompém
07. O Pão Da Minha Prima
08. Pequena Raimunda (Ramona)
09. Bonita
10. Língua Presa
11. Opa! Peraí Caceta
12. Sereia Da Pedreira
13. I Saw You Saying (That You Say That You Saw)
14. Andar Na Pedra
15. Eu Quero Ver O Oco
16. Selim
17. Marujo
18. Deixei De Fumar (Cachimbo Da Mulher) Cana Caiana
19. Tá Querendo Desquitar (Ela Tá Dando)
20. Boca De Lata


CD: Raimundos - MTV ao Vivo - CD 2
YEAR: 2000

01. Herbocinética
02. Poquito Más
03. Rapante
04. Puteiro em João Pessoa
05. A Mais Pedida
06. Deixa Eu Falar
07. Pitando no Kombão
08. Palhas do Coqueiro
09. Papeau Nuky Doe
10. Oliver's Army
11. Pout Porri: Minha Cunhada-You're Gonna Kill That Girl
12. Baile Funky
13. Tora Tora
14. Esporrei na Manivela
15. Nariz de Doze
16. Me Lambe
17. Bestinha
18. Mulher de Fases
19. Reggae do Manero
20. 20 e Poucos Anos


LOG

======== >> Log – CD 01

Exact Audio Copy V1.0 beta 1 from 15. November 2010

EAC extraction logfile from 18. April 2011, 23:52

Raimundos / MTV Ao Vivo - CD1

Used drive : HL-DT-STDVDRAM GSA-4081B Adapter: 1 ID: 0

Read mode : Secure
Utilize accurate stream : Yes
Defeat audio cache : No
Make use of C2 pointers : Yes

Read offset correction : 667
Overread into Lead-In and Lead-Out : No
Fill up missing offset samples with silence : Yes
Delete leading and trailing silent blocks : No
Null samples used in CRC calculations : No
Used interface : Native Win32 interface for Win NT & 2000
Gap handling : Left out

Used output format : User Defined Encoder
Selected bitrate : 1024 kBit/s
Quality : High
Add ID3 tag : No
Command line compressor : f:\Arquivos de programas\Exact Audio Copy\FLAC\FLAC.EXE
Additional command line options : -6 -V -T "ARTIST=%a" -T "TITLE=%t" -T "ALBUM=%g" -T "DATE=%y" -T "TRACKNUMBER=%n" -T "GENRE=%m" -T "COMMENT=%e" %j--picture="%i"%j %s -o %d


TOC of the extracted CD

Track | Start | Length | Start sector | End sector
---------------------------------------------------------
1 | 0:00.00 | 3:59.52 | 0 | 17976
2 | 3:59.52 | 2:07.35 | 17977 | 27536
3 | 6:07.12 | 1:59.53 | 27537 | 36514
4 | 8:06.65 | 1:46.40 | 36515 | 44504
5 | 9:53.30 | 3:14.12 | 44505 | 59066
6 | 13:07.42 | 2:36.03 | 59067 | 70769
7 | 15:43.45 | 2:33.30 | 70770 | 82274
8 | 18:17.00 | 1:30.47 | 82275 | 89071
9 | 19:47.47 | 2:00.48 | 89072 | 98119
10 | 21:48.20 | 1:34.25 | 98120 | 105194
11 | 23:22.45 | 2:35.40 | 105195 | 116859
12 | 25:58.10 | 1:55.45 | 116860 | 125529
13 | 27:53.55 | 3:33.40 | 125530 | 141544
14 | 31:27.20 | 3:36.07 | 141545 | 157751
15 | 35:03.27 | 4:20.33 | 157752 | 177284
16 | 39:23.60 | 2:48.10 | 177285 | 189894
17 | 42:11.70 | 2:49.12 | 189895 | 202581
18 | 45:01.07 | 1:29.55 | 202582 | 209311
19 | 46:30.62 | 7:13.25 | 209312 | 241811
20 | 53:44.12 | 3:07.10 | 241812 | 255846


Track 1

Filename O:\Raimundos\Flac\CD 01\01. Raimundos - MTV Ao Vivo - CD1 - Fome Do Cão.wav

Pre-gap length 0:00:02.00

Peak level 97.7 %
Extraction speed 10.2 X
Track quality 99.9 %
Copy CRC 50BD5332
Accurately ripped (confidence 3) [0131A347]
Copy OK

Track 2

Filename O:\Raimundos\Flac\CD 01\02. Raimundos - MTV Ao Vivo - CD1 - Mato O Véio.wav

Peak level 97.6 %
Extraction speed 10.5 X
Track quality 100.0 %
Copy CRC 1D0E90C2
Accurately ripped (confidence 3) [4AB9B317]
Copy OK

Track 3

Filename O:\Raimundos\Flac\CD 01\03. Raimundos - MTV Ao Vivo - CD1 - Carrão De Dois.wav

Peak level 100.0 %
Extraction speed 10.9 X
Track quality 100.0 %
Copy CRC F7752A59
Accurately ripped (confidence 3) [9761DEF8]
Copy OK

Track 4

Filename O:\Raimundos\Flac\CD 01\04. Raimundos - MTV Ao Vivo - CD1 - Nega Jurema.wav

Peak level 97.7 %
Extraction speed 13.3 X
Track quality 100.0 %
Copy CRC 6CCAF7F8
Accurately ripped (confidence 3) [3441FB56]
Copy OK

Track 5

Filename O:\Raimundos\Flac\CD 01\05. Raimundos - MTV Ao Vivo - CD1 - Be A Bá.wav

Peak level 99.6 %
Extraction speed 14.2 X
Track quality 100.0 %
Copy CRC 0D722DE5
Accurately ripped (confidence 3) [C3A22113]
Copy OK

Track 6

Filename O:\Raimundos\Flac\CD 01\06. Raimundos - MTV Ao Vivo - CD1 - Pompém.wav

Peak level 97.7 %
Extraction speed 13.3 X
Track quality 100.0 %
Copy CRC 152D13BE
Accurately ripped (confidence 3) [A634BBAD]
Copy OK

Track 7

Filename O:\Raimundos\Flac\CD 01\07. Raimundos - MTV Ao Vivo - CD1 - O Pão Da Minha Prima.wav

Peak level 97.7 %
Extraction speed 15.4 X
Track quality 100.0 %
Copy CRC 9FA600CD
Accurately ripped (confidence 3) [EE098374]
Copy OK

Track 8

Filename O:\Raimundos\Flac\CD 01\08. Raimundos - MTV Ao Vivo - CD1 - Pequena Raimunda (Ramona).wav

Peak level 100.0 %
Extraction speed 15.9 X
Track quality 100.0 %
Copy CRC 0EA397AF
Accurately ripped (confidence 3) [D8A8CB3E]
Copy OK

Track 9

Filename O:\Raimundos\Flac\CD 01\09. Raimundos - MTV Ao Vivo - CD1 - Bonita.wav

Peak level 100.0 %
Extraction speed 13.9 X
Track quality 100.0 %
Copy CRC 11EC934A
Accurately ripped (confidence 3) [AFC70226]
Copy OK

Track 10

Filename O:\Raimundos\Flac\CD 01\10. Raimundos - MTV Ao Vivo - CD1 - Língua Presa.wav

Peak level 97.7 %
Extraction speed 13.4 X
Track quality 99.7 %
Copy CRC 49AFE739
Accurately ripped (confidence 3) [032A1BD6]
Copy OK

Track 11

Filename O:\Raimundos\Flac\CD 01\11. Raimundos - MTV Ao Vivo - CD1 - Opa! Peraí Caceta.wav

Peak level 97.7 %
Extraction speed 15.1 X
Track quality 99.8 %
Copy CRC FE425F34
Accurately ripped (confidence 3) [28514CB8]
Copy OK

Track 12

Filename O:\Raimundos\Flac\CD 01\12. Raimundos - MTV Ao Vivo - CD1 - Sereia Da Pedreira.wav

Peak level 100.0 %
Extraction speed 14.6 X
Track quality 100.0 %
Copy CRC 9FD16DEA
Accurately ripped (confidence 3) [815D796A]
Copy OK

Track 13

Filename O:\Raimundos\Flac\CD 01\13. Raimundos - MTV Ao Vivo - CD1 - I Saw You Saying (That You Say That You Saw).wav

Peak level 97.7 %
Extraction speed 16.7 X
Track quality 100.0 %
Copy CRC 1938AAD7
Accurately ripped (confidence 3) [12810F6F]
Copy OK

Track 14

Filename O:\Raimundos\Flac\CD 01\14. Raimundos - MTV Ao Vivo - CD1 - Andar Na Pedra.wav

Peak level 100.0 %
Extraction speed 17.0 X
Track quality 99.9 %
Copy CRC 59BFD2DF
Accurately ripped (confidence 3) [676701DD]
Copy OK

Track 15

Filename O:\Raimundos\Flac\CD 01\15. Raimundos - MTV Ao Vivo - CD1 - Eu Quero Ver O Oco.wav

Peak level 97.7 %
Extraction speed 19.9 X
Track quality 100.0 %
Copy CRC 4E5C05D3
Accurately ripped (confidence 3) [8F36392B]
Copy OK

Track 16

Filename O:\Raimundos\Flac\CD 01\16. Raimundos - MTV Ao Vivo - CD1 - Selim.wav

Peak level 90.3 %
Extraction speed 17.9 X
Track quality 100.0 %
Copy CRC EE0D27C1
Accurately ripped (confidence 3) [AF000601]
Copy OK

Track 17

Filename O:\Raimundos\Flac\CD 01\17. Raimundos - MTV Ao Vivo - CD1 - Marujo.wav

Peak level 97.7 %
Extraction speed 18.2 X
Track quality 100.0 %
Copy CRC CB9C5CA0
Accurately ripped (confidence 3) [39A52959]
Copy OK

Track 18

Filename O:\Raimundos\Flac\CD 01\18. Raimundos - MTV Ao Vivo - CD1 - Deixei De Fumar (Cachimbo Da Mulher) Cana Caiana.wav

Peak level 100.0 %
Extraction speed 16.4 X
Track quality 100.0 %
Copy CRC 9C735199
Accurately ripped (confidence 3) [90F42D07]
Copy OK

Track 19

Filename O:\Raimundos\Flac\CD 01\19. Raimundos - MTV Ao Vivo - CD1 - Tá Querendo Desquitar (Ela Tá Dando).wav

Peak level 100.0 %
Extraction speed 20.8 X
Track quality 100.0 %
Copy CRC 9C87D1D7
Accurately ripped (confidence 3) [2756CA49]
Copy OK

Track 20

Filename O:\Raimundos\Flac\CD 01\20. Raimundos - MTV Ao Vivo - CD1 - Boca De Lata.wav

Peak level 100.0 %
Extraction speed 22.0 X
Track quality 99.8 %
Copy CRC 4E99EB3A
Accurately ripped (confidence 3) [A18CE8CE]
Copy OK


All tracks accurately ripped

No errors occurred

End of status report



======== >> Log Cd 02

Exact Audio Copy V1.0 beta 1 from 15. November 2010

EAC extraction logfile from 19. April 2011, 0:25

Raimundos / MTV ao Vivo - CD 2

Used drive : HL-DT-STDVDRAM GSA-4081B Adapter: 1 ID: 0

Read mode : Secure
Utilize accurate stream : Yes
Defeat audio cache : No
Make use of C2 pointers : Yes

Read offset correction : 667
Overread into Lead-In and Lead-Out : No
Fill up missing offset samples with silence : Yes
Delete leading and trailing silent blocks : No
Null samples used in CRC calculations : No
Used interface : Native Win32 interface for Win NT & 2000
Gap handling : Left out

Used output format : User Defined Encoder
Selected bitrate : 1024 kBit/s
Quality : High
Add ID3 tag : No
Command line compressor : f:\Arquivos de programas\Exact Audio Copy\FLAC\FLAC.EXE
Additional command line options : -6 -V -T "ARTIST=%a" -T "TITLE=%t" -T "ALBUM=%g" -T "DATE=%y" -T "TRACKNUMBER=%n" -T "GENRE=%m" -T "COMMENT=%e" %j--picture="%i"%j %s -o %d


TOC of the extracted CD

Track | Start | Length | Start sector | End sector
---------------------------------------------------------
1 | 0:00.00 | 3:01.70 | 0 | 13644
2 | 3:01.70 | 2:50.25 | 13645 | 26419
3 | 5:52.20 | 3:18.17 | 26420 | 41286
4 | 9:10.37 | 4:01.00 | 41287 | 59361
5 | 13:11.37 | 3:44.63 | 59362 | 76224
6 | 16:56.25 | 4:44.15 | 76225 | 97539
7 | 21:40.40 | 1:42.70 | 97540 | 105259
8 | 23:23.35 | 2:05.35 | 105260 | 114669
9 | 25:28.70 | 2:09.10 | 114670 | 124354
10 | 27:38.05 | 2:13.25 | 124355 | 134354
11 | 29:51.30 | 1:39.55 | 134355 | 141834
12 | 31:31.10 | 4:01.17 | 141835 | 159926
13 | 35:32.27 | 4:37.03 | 159927 | 180704
14 | 40:09.30 | 4:08.17 | 180705 | 199321
15 | 44:17.47 | 2:52.20 | 199322 | 212241
16 | 47:09.67 | 4:11.60 | 212242 | 231126
17 | 51:21.52 | 2:06.00 | 231127 | 240576
18 | 53:27.52 | 4:03.08 | 240577 | 258809
19 | 57:30.60 | 5:57.37 | 258810 | 285621
20 | 63:28.22 | 2:04.10 | 285622 | 294931


Track 1

Filename O:\Raimundos\Flac\CD 02\01. Raimundos - MTV ao Vivo - CD 2 - Herbocinética.wav

Pre-gap length 0:00:02.00

Peak level 97.7 %
Extraction speed 9.8 X
Track quality 99.8 %
Copy CRC EA471EB1
Accurately ripped (confidence 6) [AB21308C]
Copy OK

Track 2

Filename O:\Raimundos\Flac\CD 02\02. Raimundos - MTV ao Vivo - CD 2 - Poquito Más.wav

Peak level 97.7 %
Extraction speed 12.0 X
Track quality 100.0 %
Copy CRC 45AF71FD
Accurately ripped (confidence 6) [758AC5CF]
Copy OK

Track 3

Filename O:\Raimundos\Flac\CD 02\03. Raimundos - MTV ao Vivo - CD 2 - Rapante.wav

Peak level 100.0 %
Extraction speed 11.7 X
Track quality 100.0 %
Copy CRC A9AFBDF8
Accurately ripped (confidence 6) [48E3E70D]
Copy OK

Track 4

Filename O:\Raimundos\Flac\CD 02\04. Raimundos - MTV ao Vivo - CD 2 - Puteiro em João Pessoa.wav

Peak level 97.7 %
Extraction speed 13.7 X
Track quality 100.0 %
Copy CRC 599BBEAF
Accurately ripped (confidence 6) [2254B39E]
Copy OK

Track 5

Filename O:\Raimundos\Flac\CD 02\05. Raimundos - MTV ao Vivo - CD 2 - A Mais Pedida.wav

Peak level 97.7 %
Extraction speed 14.7 X
Track quality 100.0 %
Copy CRC 574BFFE0
Accurately ripped (confidence 6) [6E42811C]
Copy OK

Track 6

Filename O:\Raimundos\Flac\CD 02\06. Raimundos - MTV ao Vivo - CD 2 - Deixa Eu Falar.wav

Peak level 100.0 %
Extraction speed 14.5 X
Track quality 100.0 %
Copy CRC 63ECF895
Accurately ripped (confidence 6) [9A0B35DD]
Copy OK

Track 7

Filename O:\Raimundos\Flac\CD 02\07. Raimundos - MTV ao Vivo - CD 2 - Pitando no Kombão.wav

Peak level 100.0 %
Extraction speed 12.9 X
Track quality 99.7 %
Copy CRC B31E56DF
Accurately ripped (confidence 6) [924537F3]
Copy OK

Track 8

Filename O:\Raimundos\Flac\CD 02\08. Raimundos - MTV ao Vivo - CD 2 - Palhas do Coqueiro.wav

Peak level 100.0 %
Extraction speed 13.4 X
Track quality 100.0 %
Copy CRC C8CF27AB
Accurately ripped (confidence 6) [8F911C62]
Copy OK

Track 9

Filename O:\Raimundos\Flac\CD 02\09. Raimundos - MTV ao Vivo - CD 2 - Papeau Nuky Doe.wav

Peak level 100.0 %
Extraction speed 17.0 X
Track quality 100.0 %
Copy CRC 0F372F1E
Accurately ripped (confidence 6) [EEF7B7DF]
Copy OK

Track 10

Filename O:\Raimundos\Flac\CD 02\10. Raimundos - MTV ao Vivo - CD 2 - Oliver's Army.wav

Peak level 100.0 %
Extraction speed 17.2 X
Track quality 100.0 %
Copy CRC 0376FC70
Accurately ripped (confidence 6) [1A4B25AA]
Copy OK

Track 11

Filename O:\Raimundos\Flac\CD 02\11. Raimundos - MTV ao Vivo - CD 2 - Pout Porri- Minha Cunhada-You're Gonna Kill That Girl.wav

Peak level 100.0 %
Extraction speed 14.3 X
Track quality 100.0 %
Copy CRC 4D4807CB
Accurately ripped (confidence 6) [2E321D35]
Copy OK

Track 12

Filename O:\Raimundos\Flac\CD 02\12. Raimundos - MTV ao Vivo - CD 2 - Baile Funky.wav

Peak level 100.0 %
Extraction speed 16.5 X
Track quality 100.0 %
Copy CRC 33C54464
Accurately ripped (confidence 6) [4443D593]
Copy OK

Track 13

Filename O:\Raimundos\Flac\CD 02\13. Raimundos - MTV ao Vivo - CD 2 - Tora Tora.wav

Peak level 97.7 %
Extraction speed 19.0 X
Track quality 100.0 %
Copy CRC 97C57CD0
Accurately ripped (confidence 6) [2C14F5E3]
Copy OK

Track 14

Filename O:\Raimundos\Flac\CD 02\14. Raimundos - MTV ao Vivo - CD 2 - Esporrei na Manivela.wav

Peak level 100.0 %
Extraction speed 17.7 X
Track quality 100.0 %
Copy CRC 00C09F63
Accurately ripped (confidence 6) [87D91AA1]
Copy OK

Track 15

Filename O:\Raimundos\Flac\CD 02\15. Raimundos - MTV ao Vivo - CD 2 - Nariz de Doze.wav

Peak level 100.0 %
Extraction speed 17.3 X
Track quality 100.0 %
Copy CRC B36DEF57
Accurately ripped (confidence 5) [EFD89123]
Copy OK

Track 16

Filename O:\Raimundos\Flac\CD 02\16. Raimundos - MTV ao Vivo - CD 2 - Me Lambe.wav

Peak level 97.7 %
Extraction speed 17.4 X
Track quality 99.9 %
Copy CRC E0F57E7A
Accurately ripped (confidence 6) [620665BB]
Copy OK

Track 17

Filename O:\Raimundos\Flac\CD 02\17. Raimundos - MTV ao Vivo - CD 2 - Bestinha.wav

Peak level 100.0 %
Extraction speed 21.1 X
Track quality 100.0 %
Copy CRC 81EFE2EA
Accurately ripped (confidence 6) [839A610C]
Copy OK

Track 18

Filename O:\Raimundos\Flac\CD 02\18. Raimundos - MTV ao Vivo - CD 2 - Mulher de Fases.wav

Peak level 100.0 %
Extraction speed 20.0 X
Track quality 100.0 %
Copy CRC 411F71F3
Track not fully ripped for AccurateRip lookup
Copy OK

Track 19

Filename O:\Raimundos\Flac\CD 02\19. Raimundos - MTV ao Vivo - CD 2 - Reggae do Manero.wav

Pre-gap length 0:00:01.70

Peak level 97.7 %
Extraction speed 20.0 X
Track quality 100.0 %
Copy CRC 6D4E86D0
Accurately ripped (confidence 6) [284E4177]
Copy OK

Track 20

Filename O:\Raimundos\Flac\CD 02\20. Raimundos - MTV ao Vivo - CD 2 - 20 e Poucos Anos.wav

Peak level 93.7 %
Extraction speed 21.0 X
Track quality 100.0 %
Copy CRC A7DEC84E
Accurately ripped (confidence 6) [976AE9CF]
Copy OK


19 track(s) accurately ripped
1 track(s) not fully ripped for AccurateRip lookup

Some tracks could not be verified as accurate

No errors occurred

End of status report



CUE
============ >> Cue Cd 01

REM GENRE "Rock Nacional"
REM DATE 2000
REM DISCID 2C0D5314
REM COMMENT "ExactAudioCopy v1.0b1"
PERFORMER "Raimundos"
TITLE "MTV Ao Vivo - CD1"
FILE "01. Raimundos - MTV Ao Vivo - CD1 - Fome Do Cão.wav" WAVE
TRACK 01 AUDIO
TITLE "Fome Do Cão"
PERFORMER "Raimundos"
INDEX 01 00:00:00
FILE "02. Raimundos - MTV Ao Vivo - CD1 - Mato O Véio.wav" WAVE
TRACK 02 AUDIO
TITLE "Mato O Véio"
PERFORMER "Raimundos"
INDEX 01 00:00:00
FILE "03. Raimundos - MTV Ao Vivo - CD1 - Carrão De Dois.wav" WAVE
TRACK 03 AUDIO
TITLE "Carrão De Dois"
PERFORMER "Raimundos"
INDEX 01 00:00:00
FILE "04. Raimundos - MTV Ao Vivo - CD1 - Nega Jurema.wav" WAVE
TRACK 04 AUDIO
TITLE "Nega Jurema"
PERFORMER "Raimundos"
INDEX 01 00:00:00
FILE "05. Raimundos - MTV Ao Vivo - CD1 - Be A Bá.wav" WAVE
TRACK 05 AUDIO
TITLE "Be A Bá"
PERFORMER "Raimundos"
INDEX 01 00:00:00
FILE "06. Raimundos - MTV Ao Vivo - CD1 - Pompém.wav" WAVE
TRACK 06 AUDIO
TITLE "Pompém"
PERFORMER "Raimundos"
INDEX 01 00:00:00
FILE "07. Raimundos - MTV Ao Vivo - CD1 - O Pão Da Minha Prima.wav" WAVE
TRACK 07 AUDIO
TITLE "O Pão Da Minha Prima"
PERFORMER "Raimundos"
INDEX 01 00:00:00
FILE "08. Raimundos - MTV Ao Vivo - CD1 - Pequena Raimunda (Ramona).wav" WAVE
TRACK 08 AUDIO
TITLE "Pequena Raimunda (Ramona)"
PERFORMER "Raimundos"
INDEX 01 00:00:00
FILE "09. Raimundos - MTV Ao Vivo - CD1 - Bonita.wav" WAVE
TRACK 09 AUDIO
TITLE "Bonita"
PERFORMER "Raimundos"
INDEX 01 00:00:00
FILE "10. Raimundos - MTV Ao Vivo - CD1 - Língua Presa.wav" WAVE
TRACK 10 AUDIO
TITLE "Língua Presa"
PERFORMER "Raimundos"
INDEX 01 00:00:00
FILE "11. Raimundos - MTV Ao Vivo - CD1 - Opa! Peraí Caceta.wav" WAVE
TRACK 11 AUDIO
TITLE "Opa! Peraí Caceta"
PERFORMER "Raimundos"
INDEX 01 00:00:00
FILE "12. Raimundos - MTV Ao Vivo - CD1 - Sereia Da Pedreira.wav" WAVE
TRACK 12 AUDIO
TITLE "Sereia Da Pedreira"
PERFORMER "Raimundos"
INDEX 01 00:00:00
FILE "13. Raimundos - MTV Ao Vivo - CD1 - I Saw You Saying (That You Say That You Saw).wav" WAVE
TRACK 13 AUDIO
TITLE "I Saw You Saying (That You Say That You Saw)"
PERFORMER "Raimundos"
INDEX 01 00:00:00
FILE "14. Raimundos - MTV Ao Vivo - CD1 - Andar Na Pedra.wav" WAVE
TRACK 14 AUDIO
TITLE "Andar Na Pedra"
PERFORMER "Raimundos"
INDEX 01 00:00:00
FILE "15. Raimundos - MTV Ao Vivo - CD1 - Eu Quero Ver O Oco.wav" WAVE
TRACK 15 AUDIO
TITLE "Eu Quero Ver O Oco"
PERFORMER "Raimundos"
INDEX 01 00:00:00
FILE "16. Raimundos - MTV Ao Vivo - CD1 - Selim.wav" WAVE
TRACK 16 AUDIO
TITLE "Selim"
PERFORMER "Raimundos"
INDEX 01 00:00:00
FILE "17. Raimundos - MTV Ao Vivo - CD1 - Marujo.wav" WAVE
TRACK 17 AUDIO
TITLE "Marujo"
PERFORMER "Raimundos"
INDEX 01 00:00:00
FILE "18. Raimundos - MTV Ao Vivo - CD1 - Deixei De Fumar (Cachimbo Da Mulher) Cana Caiana.wav" WAVE
TRACK 18 AUDIO
TITLE "Deixei De Fumar (Cachimbo Da Mulher) Cana Caiana"
PERFORMER "Raimundos"
INDEX 01 00:00:00
FILE "19. Raimundos - MTV Ao Vivo - CD1 - Tá Querendo Desquitar (Ela Tá Dando).wav" WAVE
TRACK 19 AUDIO
TITLE "Tá Querendo Desquitar (Ela Tá Dando)"
PERFORMER "Raimundos"
INDEX 01 00:00:00
FILE "20. Raimundos - MTV Ao Vivo - CD1 - Boca De Lata.wav" WAVE
TRACK 20 AUDIO
TITLE "Boca De Lata"
PERFORMER "Raimundos"
INDEX 01 00:00:00


========= >> CUE CD 02

REM GENRE "Rock Nacional"
REM DATE 2000
REM DISCID FE0F5C14
REM COMMENT "ExactAudioCopy v1.0b1"
PERFORMER "Raimundos"
TITLE "MTV ao Vivo - CD 2"
FILE "01. Raimundos - MTV ao Vivo - CD 2 - Herbocinética.wav" WAVE
TRACK 01 AUDIO
TITLE "Herbocinética"
PERFORMER "Raimundos"
INDEX 01 00:00:00
FILE "02. Raimundos - MTV ao Vivo - CD 2 - Poquito Más.wav" WAVE
TRACK 02 AUDIO
TITLE "Poquito Más"
PERFORMER "Raimundos"
INDEX 01 00:00:00
FILE "03. Raimundos - MTV ao Vivo - CD 2 - Rapante.wav" WAVE
TRACK 03 AUDIO
TITLE "Rapante"
PERFORMER "Raimundos"
INDEX 01 00:00:00
FILE "04. Raimundos - MTV ao Vivo - CD 2 - Puteiro em João Pessoa.wav" WAVE
TRACK 04 AUDIO
TITLE "Puteiro em João Pessoa"
PERFORMER "Raimundos"
INDEX 01 00:00:00
FILE "05. Raimundos - MTV ao Vivo - CD 2 - A Mais Pedida.wav" WAVE
TRACK 05 AUDIO
TITLE "A Mais Pedida"
PERFORMER "Raimundos"
INDEX 01 00:00:00
FILE "06. Raimundos - MTV ao Vivo - CD 2 - Deixa Eu Falar.wav" WAVE
TRACK 06 AUDIO
TITLE "Deixa Eu Falar"
PERFORMER "Raimundos"
INDEX 01 00:00:00
FILE "07. Raimundos - MTV ao Vivo - CD 2 - Pitando no Kombão.wav" WAVE
TRACK 07 AUDIO
TITLE "Pitando no Kombão"
PERFORMER "Raimundos"
INDEX 01 00:00:00
FILE "08. Raimundos - MTV ao Vivo - CD 2 - Palhas do Coqueiro.wav" WAVE
TRACK 08 AUDIO
TITLE "Palhas do Coqueiro"
PERFORMER "Raimundos"
INDEX 01 00:00:00
FILE "09. Raimundos - MTV ao Vivo - CD 2 - Papeau Nuky Doe.wav" WAVE
TRACK 09 AUDIO
TITLE "Papeau Nuky Doe"
PERFORMER "Raimundos"
INDEX 01 00:00:00
FILE "10. Raimundos - MTV ao Vivo - CD 2 - Oliver's Army.wav" WAVE
TRACK 10 AUDIO
TITLE "Oliver's Army"
PERFORMER "Raimundos"
INDEX 01 00:00:00
FILE "11. Raimundos - MTV ao Vivo - CD 2 - Pout Porri- Minha Cunhada-You're Gonna Kill That Girl.wav" WAVE
TRACK 11 AUDIO
TITLE "Pout Porri: Minha Cunhada-You're Gonna Kill That Girl"
PERFORMER "Raimundos"
INDEX 01 00:00:00
FILE "12. Raimundos - MTV ao Vivo - CD 2 - Baile Funky.wav" WAVE
TRACK 12 AUDIO
TITLE "Baile Funky"
PERFORMER "Raimundos"
INDEX 01 00:00:00
FILE "13. Raimundos - MTV ao Vivo - CD 2 - Tora Tora.wav" WAVE
TRACK 13 AUDIO
TITLE "Tora Tora"
PERFORMER "Raimundos"
INDEX 01 00:00:00
FILE "14. Raimundos - MTV ao Vivo - CD 2 - Esporrei na Manivela.wav" WAVE
TRACK 14 AUDIO
TITLE "Esporrei na Manivela"
PERFORMER "Raimundos"
INDEX 01 00:00:00
FILE "15. Raimundos - MTV ao Vivo - CD 2 - Nariz de Doze.wav" WAVE
TRACK 15 AUDIO
TITLE "Nariz de Doze"
PERFORMER "Raimundos"
INDEX 01 00:00:00
FILE "16. Raimundos - MTV ao Vivo - CD 2 - Me Lambe.wav" WAVE
TRACK 16 AUDIO
TITLE "Me Lambe"
PERFORMER "Raimundos"
INDEX 01 00:00:00
FILE "17. Raimundos - MTV ao Vivo - CD 2 - Bestinha.wav" WAVE
TRACK 17 AUDIO
TITLE "Bestinha"
PERFORMER "Raimundos"
INDEX 01 00:00:00
FILE "18. Raimundos - MTV ao Vivo - CD 2 - Mulher de Fases.wav" WAVE
TRACK 18 AUDIO
TITLE "Mulher de Fases"
PERFORMER "Raimundos"
INDEX 01 00:00:00
FILE "19. Raimundos - MTV ao Vivo - CD 2 - Reggae do Manero.wav" WAVE
TRACK 19 AUDIO
TITLE "Reggae do Manero"
PERFORMER "Raimundos"
PREGAP 00:01:70
INDEX 01 00:00:00
FILE "20. Raimundos - MTV ao Vivo - CD 2 - 20 e Poucos Anos.wav" WAVE
TRACK 20 AUDIO
TITLE "20 e Poucos Anos"
PERFORMER "Raimundos"
INDEX 01 00:00:00




ADVERTISING » Very Fast Download! « ADVERTISING


Posted By: claudioalbino56 Date: 01 May 2011 14:56:58
VOZDOBRASIL OBRIGADO SEU BLOG ESTA FD: GRANDES POSTS CONTINUE ASSIM BRAZILIAN ROCK ABRAÇO CLAUDIOALBINO56 RIO DE JANEIRO CHARLIE BROWN JN: ACUSTICO MTV EMMMMM:
Posted By: Luxferium Date: 05 May 2011 07:39:38
VOZDOBRASIL, seus posts são excelentes, muito obrigado!
Posted By: claudioalbino56 Date: 29 Apr 2012 12:18:37
reup emmmm
Posted By: _feu Date: 28 Jun 2014 00:10:17
Thanks vozdobrasil!
Is it possible a re-up?
thanks