Loading...

Nancy Sinatra - The Essential (2006)

Posted By : thingska | Date : 19 Aug 2010 12:19:10 | Comments : 2 |
|



Nancy Sinatra - The Essential (2006)
1CD | EAC-Rip | FLAC-tracks +cue +log +Booklet/SCANS | March 20, 2006 | 501,35 Mb
Genre: Pop, Rock | RAR 3% Rec. | Label: EMI | Hotfile, Turbobit, Fileserve, Filesonic

This generous 26-song collection. Presents a sharp survey of Nancy Sinatra's commercial high points throughout her career, including a selection of her hits with Lee Hazlewood ("Some Velvet Morning," "Sand," "Jackson," "Down from Dover," "I've Been Down for So Long," "Summer Wine") and her own solo hits ("These Boots Are Made for Walkin'," "How Does That Grab You," "Sugar Town," "You Only Live Twice," "The Last of the Secret Agents," "Good Time Girl")


Tracklist:

01 - Bang, Bang (feat. Billy Strange) (2:41)
02 - Sugar Town (2:23)
03 - Somethin' Stupid (Duet With Frank Sinatra) (2:39)
04 - The Highway Song (3:27)
05 - Kind Of A Woman (3:02)
06 - Love Eyes (2:37)
07 - Did You Ever (Duet With Lee Hazlewood) (2:55)
08 - Flowers In The Rain (2:37)
09 - In Our Time (2:38)
10 - Drummer Man (feat. Hal Blaine) (3:20)
11 - Lady Bird (Duet With Lee Hazlewood) (3:02)
12 - I Love Them All (The Boys In The Band) (2:54)
13 - These Boots Are Made For Walkin' (2:43)
14 - How Does That Grab You, Darlin' (2:31)
15 - Friday's Child (2:26)
16 - Jackson (Duet With Lee Hazlewood) (2:47)
17 - You Only Live Twice (2:57)
18 - Hook And Ladder (feat. Ry Cooder) (3:11)
19 - Some Velvet Morning (Duet With Lee Hazlewood) (3:42)
20 - So Long, Babe (3:05)
21 - God Knows I Love You (3:11)
22 - Here We Go Again (3:12)
23 - 100 Years (2:30)
24 - Let Me Kiss You (3:26)
25 - Machine Gun Kelly (3:20)
26 - Shot You Down (Audio Bullys Feat. Nancy Sinatra) (3:38)

EAC LOG
EAC extraction logfile from 23. June 2008, 17:25 for CD
Nancy Sinatra / The Essential

Used drive : SlimtypeDVDRW SOSW-833S Adapter: 1 ID: 0
Read mode : Secure with NO C2, accurate stream, disable cache
Read offset correction : 6
Overread into Lead-In and Lead-Out : No

Used output format : C:\Program\FLAC\flac.exe (User Defined Encoder)
192 kBit/s
Additional command line options : -V -8 -T "artist=%a" -T "title=%t" -T "album=%g" -T "date=%y" -T "tracknumber=%n" -T "genre=%m" %s

Other options :
Fill up missing offset samples with silence : Yes
Delete leading and trailing silent blocks : No
Native Win32 interface for Win NT & 2000

Track 1
Filename D:\U-torrent\MUSIK\Nancy Sinatra - The Essential (2006) [FLAC]\01 - Bang, Bang (feat. Billy Strange).wav

Pre-gap length 0:00:02.00

Peak level 96.1 %
Track quality 99.9 %
Test CRC EFEB9B58
Copy CRC EFEB9B58
Copy OK

Track 2
Filename D:\U-torrent\MUSIK\Nancy Sinatra - The Essential (2006) [FLAC]\02 - Sugar Town.wav

Peak level 94.8 %
Track quality 100.0 %
Test CRC 169F541C
Copy CRC 169F541C
Copy OK

Track 3
Filename D:\U-torrent\MUSIK\Nancy Sinatra - The Essential (2006) [FLAC]\03 - Somethin' Stupid (Duet With Frank Sinatra).wav

Peak level 98.8 %
Track quality 100.0 %
Test CRC 3AD93CBE
Copy CRC 3AD93CBE
Copy OK

Track 4
Filename D:\U-torrent\MUSIK\Nancy Sinatra - The Essential (2006) [FLAC]\04 - The Highway Song.wav

Peak level 97.9 %
Track quality 100.0 %
Test CRC E38785BE
Copy CRC E38785BE
Copy OK

Track 5
Filename D:\U-torrent\MUSIK\Nancy Sinatra - The Essential (2006) [FLAC]\05 - Kind Of A Woman.wav

Peak level 98.0 %
Track quality 100.0 %
Test CRC 9E8C2546
Copy CRC 9E8C2546
Copy OK

Track 6
Filename D:\U-torrent\MUSIK\Nancy Sinatra - The Essential (2006) [FLAC]\06 - Love Eyes.wav

Peak level 96.0 %
Track quality 99.9 %
Test CRC 253636D9
Copy CRC 253636D9
Copy OK

Track 7
Filename D:\U-torrent\MUSIK\Nancy Sinatra - The Essential (2006) [FLAC]\07 - Did You Ever (Duet With Lee Hazlewood).wav

Peak level 98.8 %
Track quality 99.9 %
Test CRC 4BB01448
Copy CRC 4BB01448
Copy OK

Track 8
Filename D:\U-torrent\MUSIK\Nancy Sinatra - The Essential (2006) [FLAC]\08 - Flowers In The Rain.wav

Peak level 98.8 %
Track quality 100.0 %
Test CRC B3CA66A4
Copy CRC B3CA66A4
Copy OK

Track 9
Filename D:\U-torrent\MUSIK\Nancy Sinatra - The Essential (2006) [FLAC]\09 - In Our Time.wav

Peak level 99.1 %
Track quality 100.0 %
Test CRC E6632746
Copy CRC E6632746
Copy OK

Track 10
Filename D:\U-torrent\MUSIK\Nancy Sinatra - The Essential (2006) [FLAC]\10 - Drummer Man (feat. Hal Blaine).wav

Peak level 99.4 %
Track quality 99.9 %
Test CRC 3926151F
Copy CRC 3926151F
Copy OK

Track 11
Filename D:\U-torrent\MUSIK\Nancy Sinatra - The Essential (2006) [FLAC]\11 - Lady Bird (Duet With Lee Hazlewood).wav

Peak level 98.8 %
Track quality 100.0 %
Test CRC AB6859FF
Copy CRC AB6859FF
Copy OK

Track 12
Filename D:\U-torrent\MUSIK\Nancy Sinatra - The Essential (2006) [FLAC]\12 - I Love Them All (The Boys In The Band).wav

Peak level 96.5 %
Track quality 99.9 %
Test CRC EE9425CF
Copy CRC EE9425CF
Copy OK

Track 13
Filename D:\U-torrent\MUSIK\Nancy Sinatra - The Essential (2006) [FLAC]\13 - These Boots Are Made For Walkin'.wav

Peak level 97.1 %
Track quality 100.0 %
Test CRC 8B851652
Copy CRC 8B851652
Copy OK

Track 14
Filename D:\U-torrent\MUSIK\Nancy Sinatra - The Essential (2006) [FLAC]\14 - How Does That Grab You, Darlin'.wav

Peak level 98.6 %
Track quality 100.0 %
Test CRC AFFA8F5B
Copy CRC AFFA8F5B
Copy OK

Track 15
Filename D:\U-torrent\MUSIK\Nancy Sinatra - The Essential (2006) [FLAC]\15 - Friday's Child.wav

Peak level 95.5 %
Track quality 100.0 %
Test CRC 96E15238
Copy CRC 96E15238
Copy OK

Track 16
Filename D:\U-torrent\MUSIK\Nancy Sinatra - The Essential (2006) [FLAC]\16 - Jackson (Duet With Lee Hazlewood).wav

Peak level 98.3 %
Track quality 100.0 %
Test CRC CF752CFC
Copy CRC CF752CFC
Copy OK

Track 17
Filename D:\U-torrent\MUSIK\Nancy Sinatra - The Essential (2006) [FLAC]\17 - You Only Live Twice.wav

Peak level 96.4 %
Track quality 100.0 %
Test CRC 6F5BEA97
Copy CRC 6F5BEA97
Copy OK

Track 18
Filename D:\U-torrent\MUSIK\Nancy Sinatra - The Essential (2006) [FLAC]\18 - Hook And Ladder (feat. Ry Cooder).wav

Peak level 99.2 %
Track quality 100.0 %
Test CRC 5119096D
Copy CRC 5119096D
Copy OK

Track 19
Filename D:\U-torrent\MUSIK\Nancy Sinatra - The Essential (2006) [FLAC]\19 - Some Velvet Morning (Duet With Lee Hazlewood).wav

Peak level 98.8 %
Track quality 100.0 %
Test CRC 3A81E9EF
Copy CRC 3A81E9EF
Copy OK

Track 20
Filename D:\U-torrent\MUSIK\Nancy Sinatra - The Essential (2006) [FLAC]\20 - So Long, Babe.wav

Peak level 98.3 %
Track quality 99.9 %
Test CRC 444CEBCB
Copy CRC 444CEBCB
Copy OK

Track 21
Filename D:\U-torrent\MUSIK\Nancy Sinatra - The Essential (2006) [FLAC]\21 - God Knows I Love You.wav

Peak level 96.4 %
Track quality 100.0 %
Test CRC F9584273
Copy CRC F9584273
Copy OK

Track 22
Filename D:\U-torrent\MUSIK\Nancy Sinatra - The Essential (2006) [FLAC]\22 - Here We Go Again.wav

Peak level 84.8 %
Track quality 100.0 %
Test CRC CD36819F
Copy CRC CD36819F
Copy OK

Track 23
Filename D:\U-torrent\MUSIK\Nancy Sinatra - The Essential (2006) [FLAC]\23 - 100 Years.wav

Peak level 99.0 %
Track quality 100.0 %
Test CRC EEB6EEDB
Copy CRC EEB6EEDB
Copy OK

Track 24
Filename D:\U-torrent\MUSIK\Nancy Sinatra - The Essential (2006) [FLAC]\24 - Let Me Kiss You.wav

Peak level 98.8 %
Track quality 100.0 %
Test CRC 2CA3EDDB
Copy CRC 2CA3EDDB
Copy OK

Track 25
Filename D:\U-torrent\MUSIK\Nancy Sinatra - The Essential (2006) [FLAC]\25 - Machine Gun Kelly.wav

Peak level 97.6 %
Track quality 100.0 %
Test CRC F9D03F37
Copy CRC F9D03F37
Copy OK

Track 26
Filename D:\U-torrent\MUSIK\Nancy Sinatra - The Essential (2006) [FLAC]\26 - Shot You Down (Audio Bullys Feat. Nancy Sinatra).wav

Peak level 98.8 %
Track quality 100.0 %
Test CRC AD4D649E
Copy CRC AD4D649E
Copy OK

No errors occured

End of status report


Download Nancy Sinatra - The Essential (2006):


Thanks to the original Publicist "fedornik"

Please DO NOT MIRROR

ADVERTISING » Very Fast Download! « ADVERTISING


Posted By: Strength Date: 20 Aug 2010 00:19:00
Thank you so much
Posted By: sachsenpower Date: 27 Sep 2013 06:03:15
Links are dead.