Loading...

Kirka - Sadness In Your Eyes (1994)

Posted By : Speedyclick | Date : 01 Apr 2011 02:52:56 | Comments : 2 |
|



Kirka - Sadness In Your Eyes (1994)
EAC Rip | FLAC (image & cue & log) & mp3 @ 320 kbps | tracks: 10 | Scans | 41:54 | ~ 283 Mb & 108 Mb
Label: Fashion Music | 5% recovery record | Genre: Pop, ballads

Kirka was a popular musician and singer from Finland. He became known worldwide in the 90's with some beautiful songs. His trademark was to be his powerful, throaty voice, simultaneously shrill and soulful. He was awarded the Emma award for best male singer twice, first in 1984 and then in 2000. In this best selling album you will find all Kirka's great hits like "Sadness in your eyes", "Losing you", "Cry in my arms" and more. An album for very special moments, from a great singer who is not with us any more.

TRACKLIST
01. Sadness In Your Eyes
02. No One Will Ever Love You More
03. Losing You
04. Cry In My Arms
05. Closer To You
06. I Wanna Hold Your Hand
07. I Don'T Wanna Fight
08. Beautiful Blue Eyes
09. Come Close To Me
10. Under Pressure Of Your Love

EAC log
Exact Audio Copy V0.99 prebeta 5 from 4. May 2009

EAC extraction logfile from 31. March 2011, 18:39

kirka / sadness in your eyes

Used drive : HL-DT-STDVDRAM GH10N Adapter: 1 ID: 0

Read mode : Secure
Utilize accurate stream : Yes
Defeat audio cache : Yes
Make use of C2 pointers : No

Read offset correction : 667
Overread into Lead-In and Lead-Out : No
Fill up missing offset samples with silence : Yes
Delete leading and trailing silent blocks : No
Null samples used in CRC calculations : Yes
Used interface : Native Win32 interface for Win NT & 2000

Used output format : User Defined Encoder
Selected bitrate : 896 kBit/s
Quality : High
Add ID3 tag : No
Command line compressor : C:\Program Files\FLAC\flac.exe
Additional command line options : -V -5 -T "artist=%a" -T "title=%t" -T "album=%g" -T "date=%y" -T "tracknumber=%n" -T "genre=%m" -5 %s


TOC of the extracted CD

Track | Start | Length | Start sector | End sector
---------------------------------------------------------
1 | 0:00.00 | 3:47.25 | 0 | 17049
2 | 3:47.25 | 4:46.23 | 17050 | 38522
3 | 8:33.48 | 4:14.67 | 38523 | 57639
4 | 12:48.40 | 3:17.30 | 57640 | 72444
5 | 16:05.70 | 4:45.20 | 72445 | 93839
6 | 20:51.15 | 3:23.45 | 93840 | 109109
7 | 24:14.60 | 5:07.60 | 109110 | 132194
8 | 29:22.45 | 3:35.28 | 132195 | 148347
9 | 32:57.73 | 3:37.47 | 148348 | 164669
10 | 36:35.45 | 5:19.20 | 164670 | 188614


Range status and errors

Selected range

Filename S:\EAC Rips\Kirka _ Sadness in your eyes\kirka - sadness in your eyes.wav

Peak level 99.7 %
Range quality 100.0 %
Test CRC 76D8BEF8
Copy CRC 76D8BEF8
Copy OK

No errors occurred


AccurateRip summary

Track 1 accurately ripped (confidence 1) [C763BDC7]
Track 2 accurately ripped (confidence 1) [2DFB2D09]
Track 3 accurately ripped (confidence 1) [A5A8A17B]
Track 4 accurately ripped (confidence 1) [969C914F]
Track 5 accurately ripped (confidence 1) [1001C5AC]
Track 6 accurately ripped (confidence 1) [2D732517]
Track 7 accurately ripped (confidence 1) [06CE1C81]
Track 8 accurately ripped (confidence 1) [2F296568]
Track 9 accurately ripped (confidence 1) [E95A9A2B]
Track 10 accurately ripped (confidence 1) [50F86AF4]

All tracks accurately ripped

End of status report

ADVERTISING » Very Fast Download! « ADVERTISING


Posted By: Rosemy Date: 01 Apr 2011 11:39:34
Yes... it is very nice...
Dear friend Speedy, thank you. Sincerely, very much.
Posted By: soncao Date: 03 Apr 2011 16:23:07
@Speedyclick: Thanks your post, the song "Sadness In Your Eyes" reminds the past I've been through.