Loading...

Mannheim Steamroller - Christmas 1984 (1984, later CD release) {Repost}

Posted By : luckburz | Date : 07 Dec 2012 05:23:48 | Comments : 3 |
|



Mannheim Steamroller - Christmas 1984
EAC+LOG+CUE | FLAC: 178 MB | Full Artwork | 5% Recovery Info
Label/Cat#: American Gramaphone Records # AGCD 1984 | Country/Year: US 1984
Genre: Electronic | Style: Synth-pop, Ambient

MD5 [X] CUE [X] LOG [X] INFO TEXT [X] ARTWORK [X]

selfrip [X] not my rip []



EAC LOG
Exact Audio Copy V1.0 beta 3 from 29. August 2011

EAC extraction logfile from 7. August 2012, 15:18

Mannheim Steamroller / Christmas

Used drive : PIONEER BD-RW BDR-206 Adapter: 2 ID: 3

Read mode : Secure
Utilize accurate stream : Yes
Defeat audio cache : Yes
Make use of C2 pointers : No

Read offset correction : 667
Overread into Lead-In and Lead-Out : No
Fill up missing offset samples with silence : Yes
Delete leading and trailing silent blocks : No
Null samples used in CRC calculations : Yes
Used interface : Native Win32 interface for Win NT & 2000

Used output format : User Defined Encoder
Selected bitrate : 896 kBit/s
Quality : High
Add ID3 tag : No
Command line compressor : C:\Program Files\FLAC\flac.exe
Additional command line options : -5 -T "Artist=%artist%" -T "Title=%title%" -T "Album=%albumtitle%" -T "Date=%year%" -T "Tracknumber=%tracknr%" -T "Genre=%genre%" %source% -o %dest%


TOC of the extracted CD

Track | Start | Length | Start sector | End sector
---------------------------------------------------------
1 | 0:00.00 | 3:26.17 | 0 | 15466
2 | 3:26.17 | 4:00.68 | 15467 | 33534
3 | 7:27.10 | 2:36.60 | 33535 | 45294
4 | 10:03.70 | 2:42.70 | 45295 | 57514
5 | 12:46.65 | 3:33.10 | 57515 | 73499
6 | 16:20.00 | 2:22.62 | 73500 | 84211
7 | 18:42.62 | 2:06.65 | 84212 | 93726
8 | 20:49.52 | 1:29.50 | 93727 | 100451
9 | 22:19.27 | 1:43.35 | 100452 | 108211
10 | 24:02.62 | 4:25.05 | 108212 | 128091
11 | 28:27.67 | 5:23.65 | 128092 | 152381


Range status and errors

Selected range

Filename I:\=== VINYL RIPS ===\=== EAC===\X FRESH RIP\Mannheim Steamroller - Christmas.wav

Peak level 92.1 %
Extraction speed 0.9 X
Range quality 100.0 %
Test CRC D113C05E
Copy CRC D113C05E
Copy OK

No errors occurred


AccurateRip summary

Track 1 accurately ripped (confidence 5) [1FC0841F] (AR v2)
Track 2 accurately ripped (confidence 5) [C686A002] (AR v2)
Track 3 accurately ripped (confidence 5) [C9C7257B] (AR v2)
Track 4 accurately ripped (confidence 5) [D001C26F] (AR v2)
Track 5 accurately ripped (confidence 5) [A4FD0194] (AR v2)
Track 6 accurately ripped (confidence 5) [B96AC073] (AR v2)
Track 7 accurately ripped (confidence 5) [93673C7D] (AR v2)
Track 8 accurately ripped (confidence 5) [48F6D525] (AR v2)
Track 9 accurately ripped (confidence 5) [4DD6B812] (AR v2)
Track 10 accurately ripped (confidence 5) [5A127E7C] (AR v2)
Track 11 accurately ripped (confidence 4) [AA601572] (AR v2)

All tracks accurately ripped

End of status report

---- CUETools DB Plugin V2.1.3

[CTDB TOCID: a03AOtPfoqdouYFfEwfO_QIAxPI-] found, Submit result: a03AOtPfoqdouYFfEwfO_QIAxPI- has been confirmed
[5fc157f2] (1/3) Differs in 263 samples @25:10:38-25:10:39,26:27:39-26:27:40,26:30:52-26:30:53,26:32:36-26:32:37,26:33:06-26:33:07,26:34:20-26:34:21,26:35:04-26:35:05,26:35:34,26:36:34-26:36:35,26:38:03-26:38:04,26:55:55-26:55:56,27:03:68,27:04:38-27:04:39,33:44:54
[51852372] (2/3) Accurately ripped
You can use CUETools to repair this rip.


==== Log checksum 3E229A2F0235421180FECE3A0C30A85C8B3AEB550CF92DCD3D1AD022E42404BE ====

Dynamic Range LOG
foobar2000 1.1.7 / Dynamic Range Meter 1.1.1
log date: 2012-08-17 12:46:09

--------------------------------------------------------------------------------
Analyzed: Mannheim Steamroller / Christmas
--------------------------------------------------------------------------------

DR Peak RMS Duration Track
--------------------------------------------------------------------------------
DR12 -0.71 dB -16.41 dB 3:26 01-Deck the Halls
DR10 -5.52 dB -20.30 dB 4:01 02-We Three Kings
DR10 -5.45 dB -19.29 dB 2:37 03-Bring a Torch, Jeannette, Isabella
DR14 -6.40 dB -22.87 dB 2:43 04-Coventry Carol
DR15 -1.28 dB -19.73 dB 3:33 05-Good King Wenceslas
DR12 -3.71 dB -18.10 dB 2:23 06-Wassail, Wassail (Christmas Sweet Prt. 1)
DR11 -6.82 dB -21.38 dB 2:07 07-Carol of the Birds (Christmas Sweet Prt. 2)
DR11 -4.63 dB -19.20 dB 1:30 08-I Saw Three Ships (Christmas Sweet Prt. 3)
DR13 -3.58 dB -20.02 dB 1:43 09-God Rest Ye Merry, Gentlemen (Christmas Sweet Prt. 4)
DR13 -1.69 dB -18.02 dB 4:25 10-God Rest Ye Merry, Gentlemen (Steamroller Style)
DR10 -5.93 dB -21.37 dB 5:24 11-Stille Nacht
--------------------------------------------------------------------------------

Number of tracks: 11
Official DR value: DR12

Samplerate: 44100 Hz
Channels: 2
Bits per sample: 16
Bitrate: 738 kbps
Codec: FLAC
================================================================================



CD Info:

Mannheim Steamroller - Christmas 1984

Label: American Gramaphone Records
Catalog#: AGCD 1984
Format: CD, Album
Country: US
Released: 1984
Genre: Electronic
Style: Synth-pop, Ambient

Tracklist:

1 Deck The Halls 3:29
2 We Three Kings 3:40
3 Bring A Torch, Jeannette, Isabella 2:32
4 Coventry Carol 2:38
5 Good King Wenceslas 3:29
6 Wassail, Wassail 2:20
7 Carol Of The Birds 2:03
8 I Saw Three Ships 1:28
9 God Rest Ye Merry, Gentlemen 1:37
10 God Rest Ye Merry, Gentlemen 4:19
11 Stille Nacht 5:26

Discogs: http://www.discogs.com/Mannheim-Steamroller-Christmas/release/944577



review by Rodney Batdorf

Christmas 1984 is the first holiday album the Mannheim Steamroller released, and it remains their definitive work. Chip Davis never strayed from the clean, airy instrumental style that he exhibits here (and earlier perfected on his Fresh Aire albums), but it is here where it all sounded fresh. It's also where he had his best selection of songs, tackling a variety of classic carols like "Deck the Halls," "We Three Kings," "Good King Wenceslas," "Wassail, Wassail," "God Rest Ye Merry Gentlemen," and "I Saw Three Ships." Some listeners never found the Mannheim formula that engaging, but anyone who his been captured by one of their holiday records should investigate Christmas 1984, which is where it all began.
allmusicguide


________________

Download:
FLAC
Artwork
________________
ADVERTISING » Very Fast Download! « ADVERTISING


Posted By: knarled Date: 12 Dec 2012 17:39:27
Thanks for the FP link.
Posted By: SingIt Date: 13 Dec 2012 21:44:21
Thanks a bunch!
Posted By: declanlito55 Date: 08 Feb 2013 00:38:32
thank you for sharing