Loading...

Enrico Macias - 17 Chansons d' Or (1993)

Posted By : Speedyclick | Date : 01 Dec 2011 03:08:31 | Comments : 5 |
|



Enrico Macias - 17 Chansons d' Or (1993)
CD EAC Rip | FLAC (image & cue & log) & mp3 @ 320 kbps | tracks: 17 | Scans | 54:43 | ~ 406 Mb & 137 Mb
Label: Trema | 5% recovery record | First release: 1987 | Genre: Chanson francaise

A 'best of' album of the great Algerian-French singer and songwriter. Enjoy "Adieu mon pays", "Les gens du Nord", "Juif Espagnol", "Enfants de tous pays" and many more golden hits in their original versions, from the expressive voice of Enrico Macias with the beautiful oriental color. A really delightful CD in lossless.

TRACKLIST
01. Adieu mon pays
02. Enfants de tous pays
03. Paris vous m'a pris dans tes bras
04. Les Gens du nord
05. Noel a Jerusalem
06. Au talon de ses souliers
07. Malheur a celui qui blesse un enfant
08. Le Mendiant de l'amour
09. Juif espagnol
10. Ouvre-moi la porte
11. La France de mon enfance
12. Un berger vient de tomber
13. Pour toutes ces raisons je t'aime
14. Deux ailes et trois plumes
15. Generosite
16. Aime-moi je t'aime
17. Mon chanteur prefere

EAC log
Exact Audio Copy V1.0 beta 3 from 29. August 2011

EAC extraction logfile from 30. November 2011, 4:37

Enrico Macias / 17 Chansons d'or

Used drive : HL-DT-STDVDRAM GH10N Adapter: 1 ID: 1

Read mode : Secure
Utilize accurate stream : Yes
Defeat audio cache : Yes
Make use of C2 pointers : No

Read offset correction : 667
Overread into Lead-In and Lead-Out : No
Fill up missing offset samples with silence : Yes
Delete leading and trailing silent blocks : No
Null samples used in CRC calculations : Yes
Used interface : Native Win32 interface for Win NT & 2000

Used output format : User Defined Encoder
Selected bitrate : 1024 kBit/s
Quality : High
Add ID3 tag : Yes
Command line compressor : C:\Program Files\Exact Audio Copy New\Flac\flac.exe
Additional command line options : -V -5 -T "artist=%artist%" -T "title=%title%" -T "album=%albumtitle%" -T "tracknumber=%tracknr2%" -T "genre=%genre%" -5 %source%


TOC of the extracted CD

Track | Start | Length | Start sector | End sector
---------------------------------------------------------
1 | 0:00.33 | 2:47.72 | 33 | 12629
2 | 2:48.30 | 2:55.55 | 12630 | 25809
3 | 5:44.10 | 2:54.50 | 25810 | 38909
4 | 8:38.60 | 2:40.48 | 38910 | 50957
5 | 11:19.33 | 3:19.07 | 50958 | 65889
6 | 14:38.40 | 3:03.13 | 65890 | 79627
7 | 17:41.53 | 2:53.30 | 79628 | 92632
8 | 20:35.08 | 3:32.25 | 92633 | 108557
9 | 24:07.33 | 2:41.00 | 108558 | 120632
10 | 26:48.33 | 3:17.67 | 120633 | 135474
11 | 30:06.25 | 3:00.43 | 135475 | 149017
12 | 33:06.68 | 3:20.45 | 149018 | 164062
13 | 36:27.38 | 3:41.40 | 164063 | 180677
14 | 40:09.03 | 3:29.02 | 180678 | 196354
15 | 43:38.05 | 3:51.00 | 196355 | 213679
16 | 47:29.05 | 3:20.45 | 213680 | 228724
17 | 50:49.50 | 3:54.23 | 228725 | 246297


Range status and errors

Selected range

Filename R:\EAC Rips\HENRI BEZA\Enrico Macias - 17 Chansons d' or\Enrico Macias - 17 Chansons d'or.wav

Peak level 100.0 %
Extraction speed 6.1 X
Range quality 100.0 %
Test CRC 99E12264
Copy CRC 99E12264
Copy OK

No errors occurred


AccurateRip summary

Track 1 not present in database
Track 2 not present in database
Track 3 not present in database
Track 4 not present in database
Track 5 not present in database
Track 6 not present in database
Track 7 not present in database
Track 8 not present in database
Track 9 not present in database
Track 10 not present in database
Track 11 not present in database
Track 12 not present in database
Track 13 not present in database
Track 14 not present in database
Track 15 not present in database
Track 16 not present in database
Track 17 not present in database

None of the tracks are present in the AccurateRip database

End of status report

---- CUETools DB Plugin V2.1.3

[CTDB TOCID: dxxDGanFuX4UqmsLX_dIEqX4._c-] disk not present in database, Submit result: dxxDGanFuX4UqmsLX_dIEqX4._c- has been uploaded


==== Log checksum B0410262F3BD121F4E63E10F12AD823BE195536BF9EC1F70819736FDEBF85C49 ====

ADVERTISING » Free Fast Download! « ADVERTISING


Posted By: Pedro Coral Date: 04 Dec 2011 03:29:38
All links are gone...that fast? Thanks anyway Speedyclick.
Posted By: Speedyclick Date: 04 Dec 2011 04:49:09
They will be back soon my friend.
Posted By: tprince Date: 04 Dec 2011 09:25:47
Please please please reup. Thanks.
Posted By: Salamelik Date: 13 Dec 2011 20:59:07
Merci mille
Posted By: Robertoeddy Date: 17 Jul 2013 12:59:29
Merci beaucoup.