Loading...

V.A. - The Best of 80's: Dance party (3CD, 2012)

Posted By : Speedyclick | Date : 05 Nov 2012 18:10:31 | Comments : 6 |
|



V.A. - The Best of 80's: Dance party (3CD, 2012)
EAC Rip | FLAC (image & cue & log) & mp3 @ 320 kbps | tracks: 46 | Scans | 3:15:05 | ~ 1,38 Gb & 480 Mb
Label: SONY Music | 5% recovery record | Original recordings | Pop, oldies

A musical journey back to the golden decade of the 80s through 46 original hits. Live again the atmosphere of those dancing parties. Enjoy quick rhythms and nostalgic mood in lossless.

TRACKLIST

CD01 (1:02:19 | ~ 462 Mb & 167 Mb)
01. Terence Trent D'Arby - Rain
02. Aretha Franklin - Freeway of love
03. Men at Work - Down under
04. Cyndie Lauper - Girls just wanna have fun
05. Jermaine Jackson & Pia Zadora - When the rains begins to fall
06. Modern Talking - Cheri cheri lady
07. Starship - Nothing's gonna stop us now
08. Gazebo - Lunatic
09. Mathew Wilder - Break my stride
10. The Bangles - Manic Monday
11. The Pointer Sisters - I'm so excited
12. Denice Williams - Let's hear it for the boy
13. Billy Ocean - Loverboy
14. Blue System - Magic symphony
15. Pasadenas - Tribute (Right on)

CD02 (1:10:47 | ~ 510 Mb & 167 Mb)
01. Cyndie Lauper - She bop
02. Kenny Loggins - Footloose
03. Europe - The final counrdown
04. Aretha Franklin - Who's zooming who
05. Billy Ocean - When the going gets tough
06. Modern Talking - Atlantis is calling
07. Gloria Estefan - Dr. Beat
08. Weather Girls - It's raining men
09. Pointer Sisters - Jump (for my love)
10. Edie Murphy - Party all the time
11. King - Love & Pride
12. Big Alice - Miss you
13. Mandy - Fill me up
14. Big Fun - Blame it on the boogie
15. Bros - When will I be famous
16. Bomb The Bass - Beat dis

CD03 (1:01:59 | ~ 445 Mb & 146 Mb)
01. Nena - 99 Luftballons
02. Bonnie Tyler - Holding out for a hero
03. Men At Work - Who can it be now
04. Bangles - Walk like an Egyptian
05. Starship - We built this city
06. Patti Smith - People have the power
07. The Stranglers - No mercy
08. Survivor - Eye of the tiger
09. Quiet Riot - Cum on feel the noize
10. Alice Cooper - Poison
11. Europe - Rock the night
12. Kenny Loggins - Danger zone
13. Survivor - Burning heart
14. Evelyn Champagne King - Love come down
15. Lisa Lisa & The Cult Jam - Head to toe

EAC log CD1
Exact Audio Copy V1.0 beta 3 from 29. August 2011

EAC extraction logfile from 4. November 2012, 10:35

Various Artists / The best of 80s CD1

Used drive : HL-DT-STDVDRAM GH10N Adapter: 1 ID: 1

Read mode : Secure
Utilize accurate stream : Yes
Defeat audio cache : Yes
Make use of C2 pointers : No

Read offset correction : 667
Overread into Lead-In and Lead-Out : No
Fill up missing offset samples with silence : Yes
Delete leading and trailing silent blocks : No
Null samples used in CRC calculations : Yes
Used interface : Native Win32 interface for Win NT & 2000

Used output format : User Defined Encoder
Selected bitrate : 1024 kBit/s
Quality : High
Add ID3 tag : Yes
Command line compressor : C:\Program Files\Exact Audio Copy New\Flac\flac.exe
Additional command line options : -V -5 -T "artist=%artist%" -T "title=%title%" -T "album=%albumtitle%" -T "tracknumber=%tracknr2%" -T "genre=%genre%" -5 %source%


TOC of the extracted CD

Track | Start | Length | Start sector | End sector
---------------------------------------------------------
1 | 0:00.00 | 3:01.15 | 0 | 13589
2 | 3:01.15 | 5:53.70 | 13590 | 40134
3 | 8:55.10 | 3:43.01 | 40135 | 56860
4 | 12:38.11 | 3:51.72 | 56861 | 74257
5 | 16:30.08 | 4:09.60 | 74258 | 92992
6 | 20:39.68 | 3:49.28 | 92993 | 110195
7 | 24:29.21 | 4:26.72 | 110196 | 130217
8 | 28:56.18 | 4:05.11 | 130218 | 148603
9 | 33:01.29 | 3:07.07 | 148604 | 162635
10 | 36:08.36 | 3:08.15 | 162636 | 176750
11 | 39:16.51 | 5:42.37 | 176751 | 202437
12 | 44:59.13 | 4:18.62 | 202438 | 221849
13 | 49:18.00 | 4:12.64 | 221850 | 240813
14 | 53:30.64 | 3:37.70 | 240814 | 257158
15 | 57:08.59 | 5:11.05 | 257159 | 280488


Range status and errors

Selected range

Filename S:\MUSIC\Uploaded\The best of 80s dance party (3CD)\Bo80s-1\Various Artists - The best of 80s CD1.wav

Peak level 100.0 %
Extraction speed 2.1 X
Range quality 100.0 %
Test CRC F6D7D58C
Copy CRC F6D7D58C
Copy OK

No errors occurred


AccurateRip summary

Track 1 not present in database
Track 2 not present in database
Track 3 not present in database
Track 4 not present in database
Track 5 not present in database
Track 6 not present in database
Track 7 not present in database
Track 8 not present in database
Track 9 not present in database
Track 10 not present in database
Track 11 not present in database
Track 12 not present in database
Track 13 not present in database
Track 14 not present in database
Track 15 not present in database

None of the tracks are present in the AccurateRip database

End of status report

---- CUETools DB Plugin V2.1.3

[CTDB TOCID: kTQ5jBw0gB8XjnW4mOeWaDoeIYA-] disk not present in database, Submit result: kTQ5jBw0gB8XjnW4mOeWaDoeIYA- has been uploaded


==== Log checksum 48FDF46D1D30EF26B43ECD2962BB2B70BBD594046AF34365FC2B34277FFBBCD2 ====

EAC log CD2
Exact Audio Copy V1.0 beta 3 from 29. August 2011

EAC extraction logfile from 4. November 2012, 12:05

Various Artists / The best of 80s CD2

Used drive : HL-DT-STDVDRAM GH10N Adapter: 1 ID: 1

Read mode : Secure
Utilize accurate stream : Yes
Defeat audio cache : Yes
Make use of C2 pointers : No

Read offset correction : 667
Overread into Lead-In and Lead-Out : No
Fill up missing offset samples with silence : Yes
Delete leading and trailing silent blocks : No
Null samples used in CRC calculations : Yes
Used interface : Native Win32 interface for Win NT & 2000

Used output format : User Defined Encoder
Selected bitrate : 1024 kBit/s
Quality : High
Add ID3 tag : Yes
Command line compressor : C:\Program Files\Exact Audio Copy New\Flac\flac.exe
Additional command line options : -V -5 -T "artist=%artist%" -T "title=%title%" -T "album=%albumtitle%" -T "tracknumber=%tracknr2%" -T "genre=%genre%" -5 %source%


TOC of the extracted CD

Track | Start | Length | Start sector | End sector
---------------------------------------------------------
1 | 0:00.00 | 3:50.50 | 0 | 17299
2 | 3:50.50 | 3:50.10 | 17300 | 34559
3 | 7:40.60 | 5:12.24 | 34560 | 57983
4 | 12:53.09 | 4:46.38 | 57984 | 79471
5 | 17:39.47 | 4:12.01 | 79472 | 98372
6 | 21:51.48 | 3:53.08 | 98373 | 115855
7 | 25:44.56 | 4:25.74 | 115856 | 135804
8 | 30:10.55 | 3:34.42 | 135805 | 151896
9 | 33:45.22 | 4:01.07 | 151897 | 169978
10 | 37:46.29 | 4:16.05 | 169979 | 189183
11 | 42:02.34 | 3:24.13 | 189184 | 204496
12 | 45:26.47 | 5:00.59 | 204497 | 227055
13 | 50:27.31 | 5:38.07 | 227056 | 252412
14 | 56:05.38 | 3:40.54 | 252413 | 268966
15 | 59:46.17 | 5:04.54 | 268967 | 291820
16 | 64:50.71 | 5:56.72 | 291821 | 318592


Range status and errors

Selected range

Filename S:\MUSIC\Uploaded\The best of 80s dance party (3CD)\Bo80s-2\Various Artists - The best of 80s CD2.wav

Peak level 100.0 %
Extraction speed 2.1 X
Range quality 99.9 %
Test CRC 289B28DC
Copy CRC 289B28DC
Copy OK

No errors occurred


AccurateRip summary

Track 1 not present in database
Track 2 not present in database
Track 3 not present in database
Track 4 not present in database
Track 5 not present in database
Track 6 not present in database
Track 7 not present in database
Track 8 not present in database
Track 9 not present in database
Track 10 not present in database
Track 11 not present in database
Track 12 not present in database
Track 13 not present in database
Track 14 not present in database
Track 15 not present in database
Track 16 not present in database

None of the tracks are present in the AccurateRip database

End of status report

---- CUETools DB Plugin V2.1.3

[CTDB TOCID: B0vvALUrY4CN6r.SmVgclJUJIRY-] disk not present in database, Submit result: B0vvALUrY4CN6r.SmVgclJUJIRY- has been uploaded


==== Log checksum A5083613B2425F3B0AF324A57A87C796AABCF6E92988454EA999FC81BEBABA4C ====

EAC log CD3
Exact Audio Copy V1.0 beta 3 from 29. August 2011

EAC extraction logfile from 4. November 2012, 15:18

Various Artists / The best of 80s CD3

Used drive : HL-DT-STDVDRAM GH10N Adapter: 1 ID: 1

Read mode : Secure
Utilize accurate stream : Yes
Defeat audio cache : Yes
Make use of C2 pointers : No

Read offset correction : 667
Overread into Lead-In and Lead-Out : No
Fill up missing offset samples with silence : Yes
Delete leading and trailing silent blocks : No
Null samples used in CRC calculations : Yes
Used interface : Native Win32 interface for Win NT & 2000

Used output format : User Defined Encoder
Selected bitrate : 1024 kBit/s
Quality : High
Add ID3 tag : Yes
Command line compressor : C:\Program Files\Exact Audio Copy New\Flac\flac.exe
Additional command line options : -V -5 -T "artist=%artist%" -T "title=%title%" -T "album=%albumtitle%" -T "tracknumber=%tracknr2%" -T "genre=%genre%" -5 %source%


TOC of the extracted CD

Track | Start | Length | Start sector | End sector
---------------------------------------------------------
1 | 0:00.00 | 3:51.52 | 0 | 17376
2 | 3:51.52 | 4:27.27 | 17377 | 37428
3 | 8:19.04 | 3:24.25 | 37429 | 52753
4 | 11:43.29 | 3:28.42 | 52754 | 68395
5 | 15:11.71 | 4:29.43 | 68396 | 88613
6 | 19:41.39 | 5:11.61 | 88614 | 111999
7 | 24:53.25 | 3:42.10 | 112000 | 128659
8 | 28:35.35 | 3:53.18 | 128660 | 146152
9 | 32:28.53 | 4:52.43 | 146153 | 168095
10 | 37:21.21 | 4:32.47 | 168096 | 188542
11 | 41:53.68 | 4:09.28 | 188543 | 207245
12 | 46:03.21 | 3:38.20 | 207246 | 223615
13 | 49:41.41 | 3:53.57 | 223616 | 241147
14 | 53:35.23 | 3:20.48 | 241148 | 256195
15 | 56:55.71 | 5:03.20 | 256196 | 278940


Range status and errors

Selected range

Filename S:\MUSIC\Uploaded\The best of 80s dance party (3CD)\Bo80s-3\Various Artists - The best of 80s CD3.wav

Peak level 100.0 %
Extraction speed 4.5 X
Range quality 98.8 %
Test CRC 92109BF1
Copy CRC 92109BF1
Copy OK

No errors occurred


AccurateRip summary

Track 1 not present in database
Track 2 not present in database
Track 3 not present in database
Track 4 not present in database
Track 5 not present in database
Track 6 not present in database
Track 7 not present in database
Track 8 not present in database
Track 9 not present in database
Track 10 not present in database
Track 11 not present in database
Track 12 not present in database
Track 13 not present in database
Track 14 not present in database
Track 15 not present in database

None of the tracks are present in the AccurateRip database

End of status report

---- CUETools DB Plugin V2.1.3

[CTDB TOCID: jMhBo9Nt3PNJpv6z3Iv8iSRP1sc-] disk not present in database, Submit result: jMhBo9Nt3PNJpv6z3Iv8iSRP1sc- has been uploaded


==== Log checksum A3203F18E0B3EBDC475285B2D26BE8D6DB9CDF8CCBFBC076F2D337DDD1523776 ====

ADVERTISING » Free Fast Download! « ADVERTISING


Posted By: Koyde Date: 05 Nov 2012 18:34:45
Very good
thanks
Posted By: flac jacket Date: 09 Nov 2012 05:25:57
Love the 80s pop. Thanks!
Posted By: Clio07 Date: 14 Nov 2012 23:36:46
Gracias...
Posted By: SwissCheese Date: 17 Nov 2012 18:03:17
Lots of excellent songs here. Thank you for another great post!
Posted By: AudioTiger Date: 28 Nov 2012 12:52:52
AudioThanXXX!
Posted By: siweggs Date: 12 Jun 2013 10:03:34
Thanks for your post. Disco fans will love this!