Loading...

Barry Manilow - Greatest Hits: The Platinum Collection (1993) Repost

Posted By : Justin | Date : 15 Feb 2012 16:28:00 | Comments : 6 |
|



Barry Manilow - Greatest Hits: The Platinum Collection (1993)
EAC Rip | FLAC(tracks)+CUE +LOG - 483 MB | Full Scans | MP3 CBR 320 Kbps - 172 MB
Pop / Easy listening | 75:37 mins | Label: Arista Records | Catalogue No.: 17545-2

Smooth crooner Barry Manilow is best known for hits like "Mandy," "I Write the Songs," "Looks Like We Made It," and the tropical pop-disco smash "Copacabana." Though he is often derided by critics, it is estimated thought that he has sold around 75 million records in his four-decade career. This 19 tracks collection divided into two sections, 'The Beat' and 'The Ballads', featuring a mixture of hits, new versions, and live performances.

Tracklist:

01. Could It Be Magic (1993 Version)
02. Bermuda Triangle
03. Hey Mambo
04. I Wanna Do It With You
05. Let's Hang On
06. Some Kind Of Friend
07. Copacabana (At The Copa) (The 1993 Remix)
08. I'm Your Man (1993 Remix)
09. Mandy
10. Can't Smile Without You
11. Trying To Get The Feeling Again
12. I Made It Through The Rain
13. Read 'em And Weep
14. Somewhere In The Night
15. Lonely Together
16. Stay (Live)
17. If I Should Love Again
18. I Write The Songs
19. One Voice (Live)

Thanks to the Original ripper!

EAC-LOG
Exact Audio Copy V0.99 prebeta 4 from 23. January 2008

EAC extraction logfile from 13. June 2009, 8:17

Barry Manilow / Greatest Hits

Used drive : HL-DT-STDVD-RAM GH22NP20 Adapter: 0 ID: 0

Read mode : Secure
Utilize accurate stream : Yes
Defeat audio cache : Yes
Make use of C2 pointers : No

Read offset correction : 102
Overread into Lead-In and Lead-Out : No
Fill up missing offset samples with silence : Yes
Delete leading and trailing silent blocks : No
Null samples used in CRC calculations : Yes
Used interface : Installed external ASPI interface
Gap handling : Appended to previous track

Used output format : User Defined Encoder
Selected bitrate : 320 kBit/s
Quality : High
Add ID3 tag : Yes
Command line compressor : C:\Program Files\Exact Audio Copy\Flac\flac.exe
Additional command line options : -V -8 -T "artist=%a" -T "title=%t" -T "album=%g" -T "date=%y" -T "tracknumber=%n" -T "genre=%m" %s


TOC of the extracted CD

Track | Start | Length | Start sector | End sector
---------------------------------------------------------
1 | 0:00.00 | 4:54.05 | 0 | 22054
2 | 4:54.05 | 3:47.40 | 22055 | 39119
3 | 8:41.45 | 2:54.02 | 39120 | 52171
4 | 11:35.47 | 3:43.20 | 52172 | 68916
5 | 15:18.67 | 3:08.28 | 68917 | 83044
6 | 18:27.20 | 4:04.02 | 83045 | 101346
7 | 22:31.22 | 4:05.43 | 101347 | 119764
8 | 26:36.65 | 4:46.62 | 119765 | 141276
9 | 31:23.52 | 3:21.15 | 141277 | 156366
10 | 34:44.67 | 3:13.05 | 156367 | 170846
11 | 37:57.72 | 3:52.30 | 170847 | 188276
12 | 41:50.27 | 4:26.03 | 188277 | 208229
13 | 46:16.30 | 5:27.25 | 208230 | 232779
14 | 51:43.55 | 3:27.57 | 232780 | 248361
15 | 55:11.37 | 4:21.23 | 248362 | 267959
16 | 59:32.60 | 3:34.37 | 267960 | 284046
17 | 63:07.22 | 5:31.55 | 284047 | 308926
18 | 68:39.02 | 3:55.30 | 308927 | 326581
19 | 72:34.32 | 3:02.38 | 326582 | 340269


Track 1

Filename D:\music\rip\Barry Manilow - Greatest Hits (1993)\01 - Could It Be Magic (1993 Version).wav

Pre-gap length 0:00:02.00

Peak level 100.0 %
Track quality 100.0 %
Test CRC 93BDE6F6
Copy CRC 93BDE6F6
Accurately ripped (confidence 8) [B4CEF775]
Copy OK

Track 2

Filename D:\music\rip\Barry Manilow - Greatest Hits (1993)\02 - Bermuda Triangle.wav

Pre-gap length 0:00:00.44

Peak level 100.0 %
Track quality 100.0 %
Test CRC F493AE12
Copy CRC F493AE12
Accurately ripped (confidence 9) [13A3E2CE]
Copy OK

Track 3

Filename D:\music\rip\Barry Manilow - Greatest Hits (1993)\03 - Hey Mambo.wav

Pre-gap length 0:00:01.06

Peak level 100.0 %
Track quality 99.9 %
Test CRC 2BC63FCC
Copy CRC 2BC63FCC
Accurately ripped (confidence 9) [593F90F3]
Copy OK

Track 4

Filename D:\music\rip\Barry Manilow - Greatest Hits (1993)\04 - I Wanna Do It With You.wav

Pre-gap length 0:00:01.46

Peak level 100.0 %
Track quality 100.0 %
Test CRC B664D4A4
Copy CRC B664D4A4
Accurately ripped (confidence 9) [D972B771]
Copy OK

Track 5

Filename D:\music\rip\Barry Manilow - Greatest Hits (1993)\05 - Let's Hang On.wav

Pre-gap length 0:00:00.56

Peak level 100.0 %
Track quality 100.0 %
Test CRC A9B76950
Copy CRC A9B76950
Accurately ripped (confidence 9) [DD3D843D]
Copy OK

Track 6

Filename D:\music\rip\Barry Manilow - Greatest Hits (1993)\06 - Some Kind Of Friend.wav

Pre-gap length 0:00:00.57

Peak level 100.0 %
Track quality 100.0 %
Test CRC 6CDF485F
Copy CRC 6CDF485F
Accurately ripped (confidence 9) [17ED4C6F]
Copy OK

Track 7

Filename D:\music\rip\Barry Manilow - Greatest Hits (1993)\07 - Copacabana (At The Copa) (The 1993 Remix).wav

Pre-gap length 0:00:01.82

Peak level 100.0 %
Track quality 100.0 %
Test CRC EAF13F5D
Copy CRC EAF13F5D
Accurately ripped (confidence 10) [BECB97E8]
Copy OK

Track 8

Filename D:\music\rip\Barry Manilow - Greatest Hits (1993)\08 - I'm Your Man (1993 Remix).wav

Pre-gap length 0:00:01.77

Peak level 100.0 %
Track quality 100.0 %
Test CRC CFF40857
Copy CRC CFF40857
Accurately ripped (confidence 9) [1168B0C3]
Copy OK

Track 9

Filename D:\music\rip\Barry Manilow - Greatest Hits (1993)\09 - Mandy.wav

Pre-gap length 0:00:01.09

Peak level 100.0 %
Track quality 100.0 %
Test CRC B54AB586
Copy CRC B54AB586
Accurately ripped (confidence 10) [912912D9]
Copy OK

Track 10

Filename D:\music\rip\Barry Manilow - Greatest Hits (1993)\10 - Can't Smile Without You.wav

Pre-gap length 0:00:00.96

Peak level 100.0 %
Track quality 100.0 %
Test CRC AD13E557
Copy CRC AD13E557
Accurately ripped (confidence 9) [20706226]
Copy OK

Track 11

Filename D:\music\rip\Barry Manilow - Greatest Hits (1993)\11 - Trying To Get The Feeling Again.wav

Pre-gap length 0:00:01.36

Peak level 100.0 %
Track quality 100.0 %
Test CRC 289C094F
Copy CRC 289C094F
Accurately ripped (confidence 9) [F4AA2366]
Copy OK

Track 12

Filename D:\music\rip\Barry Manilow - Greatest Hits (1993)\12 - I Made It Through The Rain.wav

Pre-gap length 0:00:02.09

Peak level 100.0 %
Track quality 100.0 %
Test CRC 2272C0D2
Copy CRC 2272C0D2
Accurately ripped (confidence 9) [7B71D8E9]
Copy OK

Track 13

Filename D:\music\rip\Barry Manilow - Greatest Hits (1993)\13 - Read 'em And Weep.wav

Pre-gap length 0:00:01.26

Peak level 100.0 %
Track quality 100.0 %
Test CRC BC6D9931
Copy CRC BC6D9931
Accurately ripped (confidence 9) [80A37FA9]
Copy OK

Track 14

Filename D:\music\rip\Barry Manilow - Greatest Hits (1993)\14 - Somewhere In The Night.wav

Pre-gap length 0:00:01.53

Peak level 100.0 %
Track quality 100.0 %
Test CRC 4EB5DD2B
Copy CRC 4EB5DD2B
Accurately ripped (confidence 9) [8DAF1B7D]
Copy OK

Track 15

Filename D:\music\rip\Barry Manilow - Greatest Hits (1993)\15 - Lonely Together.wav

Pre-gap length 0:00:01.09

Peak level 89.1 %
Track quality 99.9 %
Test CRC 052B7D44
Copy CRC 052B7D44
Accurately ripped (confidence 9) [5FAEA4D7]
Copy OK

Track 16

Filename D:\music\rip\Barry Manilow - Greatest Hits (1993)\16 - Stay (Live).wav

Pre-gap length 0:00:00.40

Peak level 89.1 %
Track quality 99.9 %
Test CRC F1502025
Copy CRC F1502025
Accurately ripped (confidence 9) [25E0CE4B]
Copy OK

Track 17

Filename D:\music\rip\Barry Manilow - Greatest Hits (1993)\17 - If I Should Love Again.wav

Pre-gap length 0:00:02.26

Peak level 79.4 %
Track quality 99.9 %
Test CRC 44FFB492
Copy CRC 44FFB492
Accurately ripped (confidence 9) [32181595]
Copy OK

Track 18

Filename D:\music\rip\Barry Manilow - Greatest Hits (1993)\18 - I Write The Songs.wav

Pre-gap length 0:00:01.76

Peak level 100.0 %
Track quality 100.0 %
Test CRC 1728C812
Copy CRC 1728C812
Accurately ripped (confidence 9) [07B90B61]
Copy OK

Track 19

Filename D:\music\rip\Barry Manilow - Greatest Hits (1993)\19 - One Voice (Live).wav

Pre-gap length 0:00:01.09

Peak level 95.0 %
Track quality 100.0 %
Test CRC 50130D40
Copy CRC 50130D40
Accurately ripped (confidence 9) [A829E8E9]
Copy OK


All tracks accurately ripped

No errors occurred

End of status report



ADVERTISING » Free Fast Download! « ADVERTISING


Posted By: declanlito55 Date: 01 Sep 2011 22:47:24
Amazing !!!
thank you for share.
Posted By: nikospack Date: 11 Oct 2011 21:50:16
Thank you, Great post! thanx 4 sharing!
Posted By: linhkhanhnguyen Date: 19 Nov 2011 07:45:50
Thank you so much for this great post!!!!!!
Posted By: keeeroro Date: 07 Jan 2012 01:09:24
Many thanks for this share!
Posted By: hamid_dreams Date: 15 Feb 2012 21:36:22
tnx 4 share
Posted By: FrancyD Date: 17 Feb 2012 20:23:07
Thanks for sharing.