Loading...

Brown Eyed Girls - Kill Bill (2013)

Posted By : Mendose | Date : 01 Aug 2013 17:29:34 | Comments : 0 |
|



Brown Eyed Girls - Kill Bill (2013)
Korean | MP4 | *1080p* 1920x1080 | 24.000 fps | AVC 2661 Kbps | AAC 192 Kbps | 7:29 min | 153 MB
Korean Pop


The Brown Eyed Girls, often abbreviated as B.E.G., is a South Korean pop girl group managed by Nega Network. The group consists of four members: JeA, Miryo, Narsha, and Ga-In. They've debuted as an R&B/ballad vocal group in 2006 and challenged themselves with different music genres. They rose to popularity in 2008 with L.O.V.E, and cemented their position in the K-Pop world in 2009 with Abracadabra.


MediaInfo
General
Complete name : brown_eyed_girls_-_kill_bill_mv_1080.mp4
Format : MPEG-4
Format profile : Base Media / Version 2
Codec ID : mp42
File size : 153 MiB
Duration : 7mn 29s
Overall bit rate mode : Variable
Overall bit rate : 2 856 Kbps
Encoded date : UTC 2013-07-28 03:05:18
Tagged date : UTC 2013-07-28 03:05:18
gsst : 0
gstd : 449816
gssd : B7DEB1146MM1375067415659135

Video
ID : 1
Format : AVC
Format/Info : Advanced Video Codec
Format profile : High@L4.0
Format settings, CABAC : Yes
Format settings, ReFrames : 1 frame
Format settings, GOP : M=1, N=48
Codec ID : avc1
Codec ID/Info : Advanced Video Coding
Duration : 7mn 29s
Bit rate : 2 661 Kbps
Maximum bit rate : 7 901 Kbps
Width : 1 920 pixels
Height : 1 080 pixels
Display aspect ratio : 16:9
Frame rate mode : Constant
Frame rate : 24.000 fps
Color space : YUV
Chroma subsampling : 4:2:0
Bit depth : 8 bits
Scan type : Progressive
Bits/(Pixel*Frame) : 0.053
Stream size : 143 MiB (93%)
Tagged date : UTC 2013-07-28 03:05:29

Audio
ID : 2
Format : AAC
Format/Info : Advanced Audio Codec
Format profile : LC
Codec ID : 40
Duration : 7mn 29s
Bit rate mode : Variable
Bit rate : 192 Kbps
Maximum bit rate : 202 Kbps
Channel(s) : 2 channels
Channel positions : Front: L R
Sampling rate : 44.1 KHz
Compression mode : Lossy
Stream size : 10.3 MiB (7%)
Title : IsoMedia File Produced by Google, 5-11-2011
Encoded date : UTC 2013-07-28 03:05:25
Tagged date : UTC 2013-07-28 03:05:29


Screenshots:









Please send me PM if any of my links is broken.

[ MY BLOG ] | [ RSS Channel ]

ADVERTISING » Very Fast Download! « ADVERTISING


No comments for the news