Loading...

Modern Talking - Remixes 2 (2007)

Posted By : v3122 | Date : 08 Jun 2013 07:32:19 | Comments : 1 |
|


Modern Talking - Remixes 2 (2007) front

Modern Talking - Remixes 2 (2007)
XLD | Flac(Image) + Cue + Log & iPod M4A(Tracks) & MP3 CBR 320Kbps
BMG, 88697 06872 2 | Russia | ~ 554 or 555 or 168 Mb | Scans(jpg, 300dpi) Included
Pop / Eurodisco

German dance-pop duo Modern Talking were formed in Berlin in early 1983 by Dieter Bohlen, then a composer and producer employed by the Intersong label; teaming with vocalist Thomas Anders, they soon began work on their first single, 1984's "You're My Heart, You're My Soul." Modern Talking's debut LP, succinctly titled The 1st Album, followed a year later on the heels of their second single, "You Can Win If You Want"; the duo's sophomore effort, Let's Talk About Love, appeared in late 1985, launching the smash "Cheri Cheri Lady." With 1986's Ready for Romance, Modern Talking scored their biggest hit with "Brother Louie"; however, after 1986's In the Middle of Nowhere, tensions between Bohlen and Anders reached a boiling point, and following the release of their fifth LP, Romantic Warriors, Bohlen assembled a new project, Blue System. The final Modern Talking album, In the Garden of Venus, appeared posthumously at the end of 1987, after which Anders mounted a solo career. In 1998 he and Bohlen reunited for a new Modern Talking album, Back for Good.

by Jason Ankeny

Modern Talking - Remixes 2 (2007):

Modern Talking - Remixes 2 (2007) cd

Tracklist:

1 Geronimo's Cadillac (Long Vocal Version)
2 Brother Louie (Instrumental Version)
3 TV Makes The Superstar (Extended Version)
4 You Are Not Alone (Extended Version - Featuring Eric Singleton)
5 Sexy Sexy Lover (Extended Rap Version - Featuring Eric Singleton)
6 Down On My Knees
7 Fly To The Moon (New Rap Version - Featuring Eric Singleton)
8 In 100 Years (Part II)
9 Keep Love Alive (Long Vocal Version)
10 Last Exit To Brooklyn (Extended Version - Featuring Eric Singleton))
11 Ready For The Victory (Alternative Radio Version Extended)
12 Don't Take Away My Heart (New Rap Version - Featuring Eric Singleton)
13 Jet Airliner (Radio Version)
14 You Can Win If You Want (Instrumental Version)
15 Brother Louie'99 (DJ Cappiccio Extended Mix)

XLD Log
X Lossless Decoder version 20091212 (114.6)

XLD extraction logfile from 2009-12-13 11:52:24 +0200

Modern Talking / Remixes-2

Used drive : MATSHITA DVD-R UJ-857D (revision KCVB)

Use cdparanoia mode : YES (CDParanoia III 10.2 engine)
Disable audio cache : OK for the drive with cache less than 2750KB
Make use of C2 pointers : NO
Read offset correction : 102
Max retry count : 100

TOC of the extracted CD
Track | Start | Length | Start sector | End sector
---------------------------------------------------------
1 | 00:00:00 | 05:07:67 | 0 | 23091
2 | 05:07:67 | 04:03:50 | 23092 | 41366
3 | 09:11:42 | 05:06:22 | 41367 | 64338
4 | 14:17:64 | 04:57:34 | 64339 | 86647
5 | 19:15:23 | 05:00:67 | 86648 | 109214
6 | 24:16:15 | 03:43:16 | 109215 | 125955
7 | 27:59:31 | 03:09:27 | 125956 | 140157
8 | 31:08:58 | 04:07:52 | 140158 | 158734
9 | 35:16:35 | 03:24:40 | 158735 | 174074
10 | 38:41:00 | 05:30:07 | 174075 | 198831
11 | 44:11:07 | 05:17:14 | 198832 | 222620
12 | 49:28:21 | 03:27:21 | 222621 | 238166
13 | 52:55:42 | 04:15:64 | 238167 | 257355
14 | 57:11:31 | 03:42:31 | 257356 | 274036
15 | 60:53:62 | 07:32:06 | 274037 | 307942

All Tracks
Filename : /Users/VIRO/Music/Remixes-2.flac
CRC32 hash : 83DF9D2B
CRC32 hash (skip zero) : FD0397B6
Statistics
Read error : 0
Skipped (treated as error) : 0
Edge jitter error (maybe fixed) : 1
Atom jitter error (maybe fixed) : 0
Drift error (maybe fixed) : 0
Dropped bytes error (maybe fixed) : 1
Duplicated bytes error (maybe fixed) : 1
Inconsistency in error sectors : 0

Track 01
CRC32 hash : FBDE2D20
CRC32 hash (skip zero) : F7D8A71E
AccurateRip signature : E99E03D4
->Track not present in AccurateRip database.
Statistics
Read error : 0
Skipped (treated as error) : 0
Edge jitter error (maybe fixed) : 0
Atom jitter error (maybe fixed) : 0
Drift error (maybe fixed) : 0
Dropped bytes error (maybe fixed) : 0
Duplicated bytes error (maybe fixed) : 0
Inconsistency in error sectors : 0

Track 02
CRC32 hash : 2D5BF59F
CRC32 hash (skip zero) : 7F4635DC
AccurateRip signature : 843BE864
->Track not present in AccurateRip database.
Statistics
Read error : 0
Skipped (treated as error) : 0
Edge jitter error (maybe fixed) : 0
Atom jitter error (maybe fixed) : 0
Drift error (maybe fixed) : 0
Dropped bytes error (maybe fixed) : 0
Duplicated bytes error (maybe fixed) : 0
Inconsistency in error sectors : 0

Track 03
CRC32 hash : 387549FC
CRC32 hash (skip zero) : D41B5DD9
AccurateRip signature : 9FBA1259
->Track not present in AccurateRip database.
Statistics
Read error : 0
Skipped (treated as error) : 0
Edge jitter error (maybe fixed) : 0
Atom jitter error (maybe fixed) : 0
Drift error (maybe fixed) : 0
Dropped bytes error (maybe fixed) : 0
Duplicated bytes error (maybe fixed) : 0
Inconsistency in error sectors : 0

Track 04
CRC32 hash : 2AC29006
CRC32 hash (skip zero) : 4C0CA820
AccurateRip signature : 46F7BCE8
->Track not present in AccurateRip database.
Statistics
Read error : 0
Skipped (treated as error) : 0
Edge jitter error (maybe fixed) : 0
Atom jitter error (maybe fixed) : 0
Drift error (maybe fixed) : 0
Dropped bytes error (maybe fixed) : 0
Duplicated bytes error (maybe fixed) : 0
Inconsistency in error sectors : 0

Track 05
CRC32 hash : 25CC9D12
CRC32 hash (skip zero) : 4836E98F
AccurateRip signature : 933D31FA
->Track not present in AccurateRip database.
Statistics
Read error : 0
Skipped (treated as error) : 0
Edge jitter error (maybe fixed) : 0
Atom jitter error (maybe fixed) : 0
Drift error (maybe fixed) : 0
Dropped bytes error (maybe fixed) : 0
Duplicated bytes error (maybe fixed) : 0
Inconsistency in error sectors : 0

Track 06
CRC32 hash : 213626BD
CRC32 hash (skip zero) : 7BC23139
AccurateRip signature : E68CF293
->Track not present in AccurateRip database.
Statistics
Read error : 0
Skipped (treated as error) : 0
Edge jitter error (maybe fixed) : 0
Atom jitter error (maybe fixed) : 0
Drift error (maybe fixed) : 0
Dropped bytes error (maybe fixed) : 0
Duplicated bytes error (maybe fixed) : 0
Inconsistency in error sectors : 0

Track 07
CRC32 hash : EEE21A50
CRC32 hash (skip zero) : 611223AD
AccurateRip signature : EC179A32
->Track not present in AccurateRip database.
Statistics
Read error : 0
Skipped (treated as error) : 0
Edge jitter error (maybe fixed) : 0
Atom jitter error (maybe fixed) : 0
Drift error (maybe fixed) : 0
Dropped bytes error (maybe fixed) : 0
Duplicated bytes error (maybe fixed) : 0
Inconsistency in error sectors : 0

Track 08
CRC32 hash : FB1BC072
CRC32 hash (skip zero) : 1332BC6D
AccurateRip signature : C21168A4
->Track not present in AccurateRip database.
Statistics
Read error : 0
Skipped (treated as error) : 0
Edge jitter error (maybe fixed) : 0
Atom jitter error (maybe fixed) : 0
Drift error (maybe fixed) : 0
Dropped bytes error (maybe fixed) : 0
Duplicated bytes error (maybe fixed) : 0
Inconsistency in error sectors : 0

Track 09
CRC32 hash : 0A42F496
CRC32 hash (skip zero) : 19558A95
AccurateRip signature : 9FE57ECF
->Track not present in AccurateRip database.
Statistics
Read error : 0
Skipped (treated as error) : 0
Edge jitter error (maybe fixed) : 0
Atom jitter error (maybe fixed) : 0
Drift error (maybe fixed) : 0
Dropped bytes error (maybe fixed) : 0
Duplicated bytes error (maybe fixed) : 0
Inconsistency in error sectors : 0

Track 10
CRC32 hash : 84844B17
CRC32 hash (skip zero) : 70AB290A
AccurateRip signature : 57E37B06
->Track not present in AccurateRip database.
Statistics
Read error : 0
Skipped (treated as error) : 0
Edge jitter error (maybe fixed) : 0
Atom jitter error (maybe fixed) : 0
Drift error (maybe fixed) : 0
Dropped bytes error (maybe fixed) : 0
Duplicated bytes error (maybe fixed) : 0
Inconsistency in error sectors : 0

Track 11
CRC32 hash : 29AF3916
CRC32 hash (skip zero) : 95169B2D
AccurateRip signature : 8E113717
->Track not present in AccurateRip database.
Statistics
Read error : 0
Skipped (treated as error) : 0
Edge jitter error (maybe fixed) : 0
Atom jitter error (maybe fixed) : 0
Drift error (maybe fixed) : 0
Dropped bytes error (maybe fixed) : 0
Duplicated bytes error (maybe fixed) : 0
Inconsistency in error sectors : 0

Track 12
CRC32 hash : 67E0B520
CRC32 hash (skip zero) : 602ECEB9
AccurateRip signature : 036461BB
->Track not present in AccurateRip database.
Statistics
Read error : 0
Skipped (treated as error) : 0
Edge jitter error (maybe fixed) : 0
Atom jitter error (maybe fixed) : 0
Drift error (maybe fixed) : 0
Dropped bytes error (maybe fixed) : 0
Duplicated bytes error (maybe fixed) : 0
Inconsistency in error sectors : 0

Track 13
CRC32 hash : 54B83E02
CRC32 hash (skip zero) : 773B6742
AccurateRip signature : 2E71F5FC
->Track not present in AccurateRip database.
Statistics
Read error : 0
Skipped (treated as error) : 0
Edge jitter error (maybe fixed) : 0
Atom jitter error (maybe fixed) : 0
Drift error (maybe fixed) : 0
Dropped bytes error (maybe fixed) : 0
Duplicated bytes error (maybe fixed) : 0
Inconsistency in error sectors : 0

Track 14
CRC32 hash : D0E2BA35
CRC32 hash (skip zero) : 39209958
AccurateRip signature : ED53C0EA
->Track not present in AccurateRip database.
Statistics
Read error : 0
Skipped (treated as error) : 0
Edge jitter error (maybe fixed) : 1
Atom jitter error (maybe fixed) : 0
Drift error (maybe fixed) : 0
Dropped bytes error (maybe fixed) : 1
Duplicated bytes error (maybe fixed) : 1
Inconsistency in error sectors : 0

Track 15
CRC32 hash : 6DD39801
CRC32 hash (skip zero) : 0A21AA09
AccurateRip signature : B847FD7F
->Track not present in AccurateRip database.
Statistics
Read error : 0
Skipped (treated as error) : 0
Edge jitter error (maybe fixed) : 0
Atom jitter error (maybe fixed) : 0
Drift error (maybe fixed) : 0
Dropped bytes error (maybe fixed) : 0
Duplicated bytes error (maybe fixed) : 0
Inconsistency in error sectors : 0

No errors occurred

End of status report

DR Log
foobar2000 1.2.4 / Dynamic Range Meter 1.1.1
log date: 2013-06-08 10:17:27

--------------------------------------------------------------------------------
Analyzed: Modern Talking / Remixes-2
--------------------------------------------------------------------------------

DR Peak RMS Duration Track
--------------------------------------------------------------------------------
DR7 -0.39 dB -8.22 dB 5:08 01-Geronimo's Cadillac (Long Vocal Version)
DR6 -1.20 dB -8.79 dB 4:04 02-Brother Louie (Instrumental Version)
DR4 -1.00 dB -7.03 dB 5:06 03-TV Makes The Superstar (Extended Version)
DR7 -0.08 dB -8.12 dB 4:57 04-You Are Not Alone (Extended Version - feat. Eric Singleton)
DR6 -0.50 dB -7.56 dB 5:01 05-Sexy Sexy Lover (Extended Rap Version - feat. Eric Singleton)
DR7 -1.00 dB -9.48 dB 3:43 06-Down On My Knees
DR6 -1.00 dB -8.38 dB 3:09 07-Fly To The Moon (New Rap Version - feat. Eric Singleton)
DR8 -0.10 dB -9.53 dB 4:08 08-In 100 Years (Part II)
DR6 -1.00 dB -8.81 dB 3:25 09-Keep Love Alive (Long Vocal Version)
DR6 0.00 dB -7.08 dB 5:30 10-Last Exit To Brooklyn (Extended Version)
DR6 -0.10 dB -7.63 dB 5:17 11-Ready For The Victory (Alternative Radio Version Extended)
DR6 0.00 dB -7.53 dB 3:27 12-Don't Take Away My Heart (New Rap Version - feat. Eric Singleton)
DR6 -0.10 dB -6.60 dB 4:16 13-Jet Airliner (Radio Version)
DR7 -0.10 dB -7.53 dB 3:42 14-You Can Win If You Want (Instrumental Version)
DR6 -0.10 dB -7.47 dB 7:32 15-Brother Louie'99 (DJ Cappiccio Extended Mix)
--------------------------------------------------------------------------------

Number of tracks: 15
Official DR value: DR6

Samplerate: 44100 Hz
Channels: 2
Bits per sample: 16
Bitrate: 1054 kbps
Codec: FLAC

Modern Talking - Remixes 2 (2007) back

All thanks go to day_owl

Modern Talking Discography (1985 - 2003)

Download Modern Talking - Remixes 2 (2007):

ADVERTISING » Very Fast Download! « ADVERTISING


Posted By: SwissCheese Date: 12 Jun 2013 09:46:06
They could have fit these two albums onto one disc (7 songs from the first album are repeated here), but the music still jams. I think this one is better than the first album.

Thank you for this very interesting post!