Loading...

Joanna Wong - Start From Here (2008)

Posted By : johan_perez | Date : 03 Jun 2010 14:39:52 | Comments : 5 |
|



Joanna Wong - Start From Here (2008)
EAC | FLAC+CUE+LOG+SCANS | 495 MB | 74.38 min
Label: Sony BMG 2008 | Vocal Pop , Vocal Jazz | RAR 5% Rec.

The voice of Joanna Wang arrives to warm up the spirits of music lovers in the winter season. Wang has been gifted with unique jazz vocals that have earned her applause since her early teens. Now 18 years of age, she enters the music scene with her first full-length English album. Start From Here features 12 tracks including renditions of classics like Spandau Ballet's TRUE and Billy Joel's New York State of Mind. Also included on this release is I Love You, Joanna's take on David Tao's popular ballad "Love is Simple".


Tracklist:

CD1
1. Joanna Wang - Let's start from here (3:36)
2. Joanna Wang - Lost in Paradise (3:14)
3. Joanna Wang - As Love Begins to Mend (5:46)
4. Joanna Wang - Bada Bada (3:54)
5. Joanna Wang - Lost Taipei (4:36)
6. Joanna Wang - The Best Mistake I've Ever Made (4:27)
7. Joanna Wang - I Love You (7:27)
8. Joanna Wang - For No Reason (4:38)
9. Joanna Wang - Stages of Flying (4:00)
10. Joanna Wang - Now (3:52)
11. Joanna Wang - True (6:06)
12. Joanna Wang - New York State of Mind (3:28)
CD2
1. Joanna Wang - Mi Gong (Maze) (3:37)
2. Joanna Wang - You Ni De Kuai Le (I Have Your Happiness) (3:17)
3. Joanna Wang - Now (OST Now) (3:55)
4. Joanna Wang - Yin Wei Ni Ai Wo (Because You Love Me) (5:50)
5. Joanna Wang - For No Reason (OST For No Reason) (4:39)

EAC log - Disc1

Exact Audio Copy V0.99 prebeta 5 from 4. May 2009

EAC extraction logfile from 2. June 2010, 22:23

Joanna Wong / Start From Here - Disc 1 of 2

Used drive : Optiarc DVD RW AD-7200S Adapter: 3 ID: 0

Read mode : Secure
Utilize accurate stream : Yes
Defeat audio cache : Yes
Make use of C2 pointers : No

Read offset correction : 48
Overread into Lead-In and Lead-Out : No
Fill up missing offset samples with silence : Yes
Delete leading and trailing silent blocks : No
Null samples used in CRC calculations : Yes
Used interface : Native Win32 interface for Win NT & 2000

Used output format : User Defined Encoder
Selected bitrate : 768 kBit/s
Quality : High
Add ID3 tag : No
Command line compressor : C:\Program Files\Exact Audio Copy\FLAC\FLAC.EXE
Additional command line options : -6 -V -T "ARTIST=%a" -T "TITLE=%t" -T "ALBUM=%g" -T "DATE=%y" -T "TRACKNUMBER=%n" -T "GENRE=%m" -T "COMMENT=%e" %s -o %d


TOC of the extracted CD

Track | Start | Length | Start sector | End sector
---------------------------------------------------------
1 | 0:00.01 | 3:36.10 | 1 | 16210
2 | 3:36.11 | 3:14.66 | 16211 | 30826
3 | 6:51.02 | 5:46.39 | 30827 | 56815
4 | 12:37.41 | 3:55.71 | 56816 | 74511
5 | 16:33.37 | 4:34.62 | 74512 | 95123
6 | 21:08.24 | 4:27.51 | 95124 | 115199
7 | 25:36.00 | 5:16.50 | 115200 | 138949
8 | 30:52.50 | 4:38.53 | 138950 | 159852
9 | 35:31.28 | 4:00.09 | 159853 | 177861
10 | 39:31.37 | 3:52.61 | 177862 | 195322
11 | 43:24.23 | 6:06.13 | 195323 | 222785
12 | 49:30.36 | 3:38.23 | 222786 | 239158


Range status and errors

Selected range

Filename C:\My Music\rfccbh\Joanna Wong - Start From Here - Disc 1 of 2.wav

Peak level 99.9 %
Range quality 99.9 %
Test CRC 8959EAF3
Copy CRC 8959EAF3
Copy OK

No errors occurred


AccurateRip summary

Track 1 accurately ripped (confidence 6) [26AEC566]
Track 2 accurately ripped (confidence 6) [6336BD2D]
Track 3 accurately ripped (confidence 6) [4146F678]
Track 4 accurately ripped (confidence 6) [4A8E8080]
Track 5 accurately ripped (confidence 6) [1FFEB37C]
Track 6 accurately ripped (confidence 6) [EC4AB18F]
Track 7 accurately ripped (confidence 6) [DDB1FF8F]
Track 8 accurately ripped (confidence 6) [A54310C8]
Track 9 accurately ripped (confidence 6) [1130EA31]
Track 10 accurately ripped (confidence 6) [B1B92584]
Track 11 accurately ripped (confidence 6) [C2076274]
Track 12 accurately ripped (confidence 6) [42AA513D]

All tracks accurately ripped

End of status report


EAC log - Disc2
Exact Audio Copy V0.99 prebeta 5 from 4. May 2009

EAC extraction logfile from 2. June 2010, 22:46

Joanna Wong / Start From Here (Disc 2 of 2)

Used drive : Optiarc DVD RW AD-7200S Adapter: 3 ID: 0

Read mode : Secure
Utilize accurate stream : Yes
Defeat audio cache : Yes
Make use of C2 pointers : No

Read offset correction : 48
Overread into Lead-In and Lead-Out : No
Fill up missing offset samples with silence : Yes
Delete leading and trailing silent blocks : No
Null samples used in CRC calculations : Yes
Used interface : Native Win32 interface for Win NT & 2000

Used output format : User Defined Encoder
Selected bitrate : 768 kBit/s
Quality : High
Add ID3 tag : No
Command line compressor : C:\Program Files\Exact Audio Copy\FLAC\FLAC.EXE
Additional command line options : -6 -V -T "ARTIST=%a" -T "TITLE=%t" -T "ALBUM=%g" -T "DATE=%y" -T "TRACKNUMBER=%n" -T "GENRE=%m" -T "COMMENT=%e" %s -o %d


TOC of the extracted CD

Track | Start | Length | Start sector | End sector
---------------------------------------------------------
1 | 0:00.01 | 3:37.56 | 1 | 16331
2 | 3:37.57 | 3:17.16 | 16332 | 31122
3 | 6:54.73 | 3:55.12 | 31123 | 48759
4 | 10:50.10 | 5:50.40 | 48760 | 75049
5 | 16:40.50 | 4:49.40 | 75050 | 96764


Range status and errors

Selected range

Filename C:\My Music\rfccbh\Joanna Wong - Start From Here (Disc 2 of 2).wav

Peak level 99.9 %
Range quality 100.0 %
Test CRC 5574F97C
Copy CRC 5574F97C
Copy OK

No errors occurred


AccurateRip summary

Track 1 accurately ripped (confidence 4) [B2EEECE2]
Track 2 accurately ripped (confidence 4) [D9E69911]
Track 3 accurately ripped (confidence 4) [2E86B932]
Track 4 accurately ripped (confidence 4) [CCE31EEC]
Track 5 accurately ripped (confidence 4) [731D25B1]

All tracks accurately ripped

End of status report


Joanna Wong - Start From Here : PART1 * PART2 * PART3 * PART4 * PART5 * PART6

ADVERTISING » Very Fast Download! « ADVERTISING


Posted By: albatran Date: 03 Jun 2010 18:35:46
Thank you!
Posted By: kfat Date: 04 Jun 2010 16:27:03
fantastic post.. i've found the sacd version and she has another song in this album and she cover "We've just only begun" by Carpenters, very fantastic.
Posted By: tbavax Date: 05 Jun 2010 00:35:10
thank you
Posted By: Strength Date: 06 Jun 2010 00:05:19
Thank you so much
Posted By: Blue61 Date: 19 Sep 2010 23:20:01
Thank you very much from Spain.
Muchas gracias !!!

And big thanks for RS. links... ;-)