Loading...

Elton John - Double Hits Collection (1997)

Posted By : v3122 | Date : 25 May 2010 08:29:59 | Comments : 7 |
|


Elton John - Double Hits Collection (1997)

Elton John - Double Hits Collection (1997)
2CD | Pop Rock | EAC Rip | Flac (Image) + Cue + Log | MP3 CBR 320Kbps | 18 + 16 Tracks
Covers(300dpi) Included | WH 972-1/2 C | ~903 + 346 Mb | FileSonic, FileServe

Elton John - Double Hits Collection (1997) - CD1:

Elton John - Double Hits Collection (1997) - CD1

Tracklist:

01. Crocodile rock
02. Daniel
03. Your song
04. Saturday night's alright for nothing
05. Candle in the wind
06. Rocket man
07. Goodbye yellow brick road
08. I'm still standing
09. Don't go breaking my heart
10. Little Jeanie
11. Blue eyes
12. Kiss the bridge
13. Sorry seems to be the hardest word
14. Someone saved my love tonight
15. Part-time love
16. The bitch is back
17. I guess that's why they call it the blues
18. Song for guy

EAC Log
Exact Audio Copy V0.99 prebeta 5 from 4. May 2009

Отчёт EAC об извлечении, выполненном 11. сентября 2009, 9:56

Elton John / Double hits collection -1

Дисковод: TSSTcorpCD/DVDW SH-S182D Adapter: 5 ID: 0

Режим чтения : Достоверность
Использование точного потока : Да
Отключение кэша аудио : Да
Использование указателей C2 : Нет

Коррекция смещения при чтении : 6
Способность читать области Lead-in и Lead-out : Нет
Заполнение пропущенных сэмплов тишиной : Да
Удаление блоков с тишиной в начале и конце : Нет
При вычислениях CRC использовались нулевые сэмплы : Да
Интерфейс : Встроенный Win32-интерфейс для Win NT/2000

Выходной формат : Внутренние WAV-операции
Формат сэмплов : 44.100 Гц; 16 бит; стерео


TOC извлечённого CD

Трек | Старт | Длительность | Начальный сектор | Конечный сектор
---------------------------------------------------------------------
1 | 0:00.00 | 3:56.26 | 0 | 17725
2 | 3:56.26 | 3:53.32 | 17726 | 35232
3 | 7:49.58 | 4:01.24 | 35233 | 53331
4 | 11:51.07 | 4:23.70 | 53332 | 73126
5 | 16:15.02 | 3:49.00 | 73127 | 90301
6 | 20:04.02 | 4:40.45 | 90302 | 111346
7 | 24:44.47 | 3:15.36 | 111347 | 126007
8 | 28:00.08 | 3:03.12 | 126008 | 139744
9 | 31:03.20 | 4:31.44 | 139745 | 160113
10 | 35:34.64 | 4:24.67 | 160114 | 179980
11 | 39:59.56 | 3:27.33 | 179981 | 195538
12 | 43:27.14 | 3:55.07 | 195539 | 213170
13 | 47:22.21 | 3:45.62 | 213171 | 230107
14 | 51:08.08 | 3:56.11 | 230108 | 247818
15 | 55:04.19 | 3:14.59 | 247819 | 262427
16 | 58:19.03 | 3:40.23 | 262428 | 278950
17 | 61:59.26 | 4:42.20 | 278951 | 300120
18 | 66:41.46 | 5:05.70 | 300121 | 323065


Характеристики диапазона извлечения и сообщения об ошибках

Выбранный диапазон

Имя файла E:\\Elton John - 1997 - Double hits collection -1.wav

Пиковый уровень 99.7 %
Качество диапазона 100.0 %
CRC теста C9B2CE04
CRC копии C9B2CE04
Копирование... OK

Ошибок не произошло

Конец отчёта


Audiochecker Log
AUDIOCHECKER v2.0 beta (build 457) - by Dester - opdester@freemail.hu
~~~~~~~~~~~~~~~~~~~~~~~~~~~~~~~~~~
-=== НЕ РЕДАКТИРУЙТЕ ЭТОТ ФАЙЛ! ===-

Путь: ...\Disc1

1 -=- Elton John - 1997 - Double hits collection -1.flac -=- CDDA (100%)

187715460

Elton John - Double Hits Collection (1997) - CD2:

Elton John - Double Hits Collection (1997) - CD2

Tracklist:

01. Nikitta
02. Passengers
03. Sacrifice
04. Don`t Let The Sun
05. The One
06. Sad Songs
07. Can You Feel The Love Tonight
08. I Don`t Wanna Go On With You Like That
09. You Gotta Love Someone
10. Teardrops
11. Circle Of Life
12. The Last Song
13. True Love
14. Blessed
15. You Can Make History
16. Live Like Horses

EAC Log
Exact Audio Copy V0.99 prebeta 5 from 4. May 2009

Отчёт EAC об извлечении, выполненном 11. сентября 2009, 10:41

Elton John / Double Hits Collection -2

Дисковод: TSSTcorpCD/DVDW SH-S182D Adapter: 5 ID: 0

Режим чтения : Достоверность
Использование точного потока : Да
Отключение кэша аудио : Да
Использование указателей C2 : Нет

Коррекция смещения при чтении : 6
Способность читать области Lead-in и Lead-out : Нет
Заполнение пропущенных сэмплов тишиной : Да
Удаление блоков с тишиной в начале и конце : Нет
При вычислениях CRC использовались нулевые сэмплы : Да
Интерфейс : Встроенный Win32-интерфейс для Win NT/2000

Выходной формат : Внутренние WAV-операции
Формат сэмплов : 44.100 Гц; 16 бит; стерео


TOC извлечённого CD

Трек | Старт | Длительность | Начальный сектор | Конечный сектор
---------------------------------------------------------------------
1 | 0:00.00 | 5:42.71 | 0 | 25720
2 | 5:42.71 | 3:23.43 | 25721 | 40988
3 | 9:06.39 | 5:08.31 | 40989 | 64119
4 | 14:14.70 | 5:41.51 | 64120 | 89745
5 | 19:56.46 | 5:10.02 | 89746 | 112997
6 | 25:06.48 | 4:09.55 | 112998 | 131727
7 | 29:16.28 | 4:01.04 | 131728 | 149806
8 | 33:17.32 | 3:56.56 | 149807 | 167562
9 | 37:14.13 | 4:47.49 | 167563 | 189136
10 | 42:01.62 | 4:44.64 | 189137 | 210500
11 | 46:46.51 | 4:27.19 | 210501 | 230544
12 | 51:13.70 | 3:19.09 | 230545 | 245478
13 | 54:33.04 | 3:33.49 | 245479 | 261502
14 | 58:06.53 | 4:14.07 | 261503 | 280559
15 | 62:20.60 | 4:33.30 | 280560 | 301064
16 | 66:54.15 | 4:44.20 | 301065 | 322384


Характеристики диапазона извлечения и сообщения об ошибках

Выбранный диапазон

Имя файла E:\\Elton John - 1997 - Double Hits Collection -2.wav

Пиковый уровень 99.5 %
Качество диапазона 100.0 %
CRC теста 4AA92539
CRC копии 4AA92539
Копирование... OK

Ошибок не произошло

Конец отчёта


Audiochecker Log
AUDIOCHECKER v2.0 beta (build 457) - by Dester - opdester@freemail.hu
~~~~~~~~~~~~~~~~~~~~~~~~~~~~~~~~~~
-=== НЕ РЕДАКТИРУЙТЕ ЭТОТ ФАЙЛ! ===-

Путь: ...\Disc2

1 -=- Elton John - 1997 - Double Hits Collection -2.flac -=- CDDA (100%)

187817860

Download Elton John - Double Hits Collection (1997):

FileSonic: Flac - part1 | Flac - part2 | Flac - part3 | Flac - part4 | MP3

FileServe: Flac - part1 | Flac - part2 | Flac - part3 | Flac - part4 | MP3

--------------------

More Elton John from my blog ....

In case you encounter dead links or have another problems, please send me a private message.

All thanks goes to the original releaser ...

ADVERTISING » Very Fast Download! « ADVERTISING


Posted By: tbavax Date: 25 May 2010 09:46:01
thank you


Posted By: pagema Date: 25 May 2010 10:14:53
Thanks a lot for sharing all these songs.
Good day from Paris
Posted By: gonzalo76 Date: 25 May 2010 20:41:31
Thank you kindly !
Posted By: spinner47 Date: 28 May 2010 23:04:39
Thank you very much.
Posted By: fionap Date: 30 May 2010 03:17:14
Thanks a lot from Argentina
God bless you all
Posted By: grissyboy Date: 03 Jul 2010 14:46:49
thanks here in Canada
Posted By: walrus64 Date: 28 Apr 2011 06:22:11
Thank You!