Loading...

Paradox - Drifting Feather (1971)

Posted By : intothe | Date : 14 Aug 2009 16:58:33 | Comments : 1 |
|



Paradox - Drifting Feather (1971)
Jazz | EAC rip (FLAC+CUE+LOG) | 232 MB | full scans
Polskie Nagranie (2004) | 40:29 | RAR with 5% recovery
24-bit digitally remastered


LOG
EAC extraction logfile from 12. August 2009, 15:11

Paradox / Drifting Feather

Used drive : _NEC DVD_RW ND-3500AG Adapter: 0 ID: 0

Read mode : Secure
Utilize accurate stream : Yes
Defeat audio cache : Yes
Make use of C2 pointers : No

Read offset correction : 48
Overread into Lead-In and Lead-Out : No
Fill up missing offset samples with silence : Yes
Delete leading and trailing silent blocks : No
Null samples used in CRC calculations : Yes
Used interface : Native Win32 interface for Win NT & 2000

Used output format : User Defined Encoder
Selected bitrate : 768 kBit/s
Quality : High
Add ID3 tag : No
Command line compressor : C:\Program Files\Exact Audio Copy\FLAC\FLAC.EXE
Additional command line options : -6 -V -T "ARTIST=%a" -T "TITLE=%t" -T "ALBUM=%g" -T "DATE=%y" -T "TRACKNUMBER=%n" -T "GENRE=%m" -T "COMMENT=%e" %s -o %d


TOC of the extracted CD

Track | Start | Length | Start sector | End sector
---------------------------------------------------------
1 | 0:00.00 | 13:12.00 | 0 | 59399
2 | 13:12.00 | 3:59.05 | 59400 | 77329
3 | 17:11.05 | 3:32.68 | 77330 | 93297
4 | 20:43.73 | 5:05.40 | 93298 | 116212
5 | 25:49.38 | 3:52.72 | 116213 | 133684
6 | 29:42.35 | 4:12.03 | 133685 | 152587
7 | 33:54.38 | 6:36.38 | 152588 | 182325


Range status and errors

Selected range

Filename J:\eMusic\Rip\Paradox - Drifting Feather.wav

Peak level 97.7 %
Range quality 100.0 %
Test CRC 1FF46B8F
Copy CRC 1FF46B8F
Copy OK

No errors occurred


AccurateRip summary

Track 1 not present in database
Track 2 not present in database
Track 3 not present in database
Track 4 not present in database
Track 5 not present in database
Track 6 not present in database
Track 7 not present in database

None of the tracks are present in the AccurateRip database

End of status report


After the groups first rehersals in 1968, I thought it a paradox to play jazz without drums, with bassoon, and cello which hums and groans in bebop diminished fifths. At that time, the very sound combination of the bassoon, trombone, cello and bass made me happy and inspired me to make some musical tricks and jokes on the borderline of jazz and folk. I don't hesitate to write pieces in the spirit of Polish folk music, to draw original examples from the rich sources of folklore, Polish and European. Continuing our work in 1971, with some changes in instrumentation (alto sax, trombone, cello, bass and guitar), we realise that our sound resembles a folk band manned with modern jazzmen. However, I think that this is where our originality lies, and the lack of drums makes no difference to the soloist who can swing well enough by themselves. - by Andrzej Brzeski

Tracks:
1. Malaguena (Ernesto Lecuona) 13:12
2. Uncle Leo's Intimate Life (Andrzej Brzeski) 3:59
3. Do You Have Fresh Eggs, or in Mrs. Bronka's Baackyard (Andrzej Brzeski) 3:32
4. Drifting Feather (Andrzej Brzeski) 5:05
5. Pietrek (Pete) (Andrzej Brzeski) 3:53
6. Grandma's Hen (Andrzej Brzeski) 4:12
7. Auntie's Chitchot (Andrzej Brzeski) 6:36

Personnel:
Andrzej Brzeski (Trombone)
Michal Gorny (Cello)
Stanislaw Kulhawczuk (Bass)
Slawomir Piwowar (Classical Guitar)
Wlodzimierz Szlaskiewicz (Alto Saxophon)

Dlink

ADVERTISING » Click here to download Ebooks/Magazines for free « ADVERTISING


Posted By: eisler444 Date: 14 Aug 2009 18:25:22
Спасибо!!!