Loading...

Sparks - Shortcuts: The 7 Inch Mixes (1979-1984) [2CD] (2012) {Repertoire}

Posted By : ruskaval | Date : 23 Jan 2013 09:28:35 | Comments : 0 |
|



Sparks - Shortcuts: The 7 Inch Mixes (1979-1984) [2CD] (2012) {Repertoire}
EAC rip (secure mode) | FLAC (image)+CUE+LOG -> 819 Mb | MP3 @320 -> 245 Mb
Full Artwork @ 600 dpi (jpg) -> 186 Mb
© 2012 Repertoire Records | REP 5255
Rock / Synth Pop / New Wave / Pop Rock

Since they emerged into the mainstream in 1974, Sparks brothers Ron and Russell Mael have endeared themselves to successive generations of fans with their wry humour, offbeat quirkiness and lyrical and musical inventiveness. This compilation picks up the story in 1979, when Sparks commenced a renewed assault on European chartdom, with Giorgio Moroder - the Italian-born producer who, with Pete Bellotte, had turned Donna Summer into a disco megastar. It charts a particularly fertile period in a long career.

A & B-sides of all the period singles are included, as it runs from early hits like Beat The Clock and The Number One Song In Heaven (highly influential on 80s hit stars the Human League) through biggest American hit single Cool Places (performed with Jane Wiedlin of the Go-Gos) to selections from 1984's Pulling Rabbits Out Of A Hat LP. Booklet with authoritative and extensive liner notes written by respected Record Collector journalist Michael Heatley. Expertly remastered superb sound - top quality reproduction. The best in the business!


More Sparks:
Sparks - Extended: The 12 inch Mixes (1979-1984) [2CD] (2012) {Repertoire}


tracklist:
Disc: 1

01. Tryouts For The Human Race - Single A-side, (UK) Virgin VS 289,1979
02. The Number One Song In Heaven - Single A-side, (UK) Virgin VS 244,1979
03. La Dolce Vita - Single A-side, (Germany) Oasis / Ariola 100294,1979
04. Beat The Clock (3 48 version) - Single A-side, (UK) Virgin VS 270,1979
05. Young Girls -Single A-side, (UK) Virgin VS 343,1980
06. When I'm With You - Single A-side, (UK) Virgin VS 319,1980
07. Rock n Roll People In A Disco World - Single B-side (France), Underdog 49705,1980
08. Funny Face - Single A-side, (Germany) Oasis / Ariola 102744,1981
09. Tips For Teens - Single A-side, (Germany) Oasis / Ariola 103279, 1981
10. I Predict - Single A-side, (UK) Atlantic K 11740,1982
11. Eaten By The Monster Of Love (Promo Single) - Single A-side, (USA) Atlantic 4065,1982
12. Modesty Plays (Short Version) - Single A-side, (France) Carrere / Underdog 13001,1982
13. Angst In My Pants - Single A-side, (France) Carrere / Underdog 13001, 1982
14. Cool Places (feat. Jane Wiedlin) - Single B-side, (Germany) Oasis 613809,1983
15. All You Ever Think About Is Sex - Single A-side, (USA) Atlantic 789797, 1983

Disc: 2
01. Please, Baby, Please - Single A-side, (France) Carrere 13287,1983
02. With All My Might - Single A-side, (France) Underdog 13573,1984
03. Pretending To Be Drunk - Single A-side, (USA) Atlantic 789616,1984
04. My Other Voice - Single B-side, (Germany) Oasis / Ariola 100294, 1979
05. Just Because You Love Me - Single B-side, (Germany) Oasis / Ariola 101999,1980
06. When I'm With You (Instrumental) - Single B-side, (Germany) Oasis / Ariola 101230,1980
07. Wacky Women - Single B-side, (Germany) Oasis / Ariola 103279, 1981
08. Don't Shoot Me - Single B-side, (Germany) Oasis / Ariola 102744, 1981
09. Moustache - Single B-side, (UK) Atlantic K 11740,1982
10. Nicotina - Single B-side, (Germany) Metronome 0030564, 1982
11. Sports - Single B-side, (Germany) Oasis 613809,1983
12. I Wish I Looked A Little Better (Promo Single) - Single B-side, (USA) Atlantic 789797,1983
13. Rockin Girls - Single B-side, (France) Carrere 13287,1983
14. Beat The Clock (Canadian Single Version) (4 25 ) - Single A-side (Canada) Elektra EF 90157,1979
15. Sparks In The Dark (Instrumental) - Single B-side, (France) Underdog 13573,1984



EAC log CD1
Exact Audio Copy V1.0 beta 3 from 29. August 2011

EAC extraction logfile from 18. January 2013, 14:55

Sparks / Sparks Shortcuts: The 7 Inch Mixes (Disc 1)

Used drive : SAMSUNG DVD-ROM SD-616E Adapter: 3 ID: 0

Read mode : Secure
Utilize accurate stream : Yes
Defeat audio cache : Yes
Make use of C2 pointers : No

Read offset correction : 12
Overread into Lead-In and Lead-Out : No
Fill up missing offset samples with silence : Yes
Delete leading and trailing silent blocks : No
Null samples used in CRC calculations : Yes
Used interface : Native Win32 interface for Win NT & 2000

Used output format : Internal WAV Routines
Sample format : 44.100 Hz; 16 Bit; Stereo


TOC of the extracted CD

Track | Start | Length | Start sector | End sector
---------------------------------------------------------
1 | 0:00.00 | 3:20.15 | 0 | 15014
2 | 3:20.15 | 3:55.37 | 15015 | 32676
3 | 7:15.52 | 3:50.73 | 32677 | 49999
4 | 11:06.50 | 3:48.65 | 50000 | 67164
5 | 14:55.40 | 3:53.33 | 67165 | 84672
6 | 18:48.73 | 3:56.72 | 84673 | 102444
7 | 22:45.70 | 4:49.28 | 102445 | 124147
8 | 27:35.23 | 3:24.60 | 124148 | 139507
9 | 31:00.08 | 3:32.39 | 139508 | 155446
10 | 34:32.47 | 2:54.00 | 155447 | 168496
11 | 37:26.47 | 2:58.13 | 168497 | 181859
12 | 40:24.60 | 3:07.18 | 181860 | 195902
13 | 43:32.03 | 3:25.19 | 195903 | 211296
14 | 46:57.22 | 3:24.67 | 211297 | 226663
15 | 50:22.14 | 3:31.61 | 226664 | 242549


Range status and errors

Selected range

Filename C:\Documents and Settings\Borya\Desktop\spacuts7\Sparks - Sparks Shortcuts- The 7 Inch Mixes (Disc 1).wav

Peak level 98.8 %
Extraction speed 3.8 X
Range quality 99.9 %
Copy CRC 941DF8B0
Copy OK

No errors occurred


AccurateRip summary

Track 1 not present in database
Track 2 not present in database
Track 3 not present in database
Track 4 not present in database
Track 5 not present in database
Track 6 not present in database
Track 7 not present in database
Track 8 not present in database
Track 9 not present in database
Track 10 not present in database
Track 11 not present in database
Track 12 not present in database
Track 13 not present in database
Track 14 not present in database
Track 15 not present in database

None of the tracks are present in the AccurateRip database

End of status report

==== Log checksum B838A91F0EA0DB1FDE7E801AD79C7243413DAF1DC024CFC71B3D4393464FF4C0 ====

------------------------------------------------------------

Exact Audio Copy V1.0 beta 3 from 29. August 2011

EAC extraction logfile from 18. January 2013, 15:19

Sparks / Sparks Shortcuts: The 7 Inch Mixes (Disc 1)

Used drive : SAMSUNG DVD-ROM SD-616E Adapter: 3 ID: 0

Read mode : Secure
Utilize accurate stream : Yes
Defeat audio cache : Yes
Make use of C2 pointers : No

Read offset correction : 12
Overread into Lead-In and Lead-Out : No
Fill up missing offset samples with silence : Yes
Delete leading and trailing silent blocks : No
Null samples used in CRC calculations : Yes
Used interface : Native Win32 interface for Win NT & 2000

Used output format : User Defined Encoder
Selected bitrate : 768 kBit/s
Quality : High
Add ID3 tag : No
Command line compressor : C:\Program Files\Exact Audio Copy\FLAC\FLAC.EXE
Additional command line options : -6 -V -T "ARTIST=%artist%" -T "TITLE=%title%" -T "ALBUM=%albumtitle%" -T "DATE=%year%" -T "TRACKNUMBER=%tracknr%" -T "GENRE=%genre%" -T "COMMENT=%comment%" -T "BAND=%albuminterpret%" -T "ALBUMARTIST=%albuminterpret%" -T "COMPOSER=%composer%" %haslyrics%--tag-from-file=LYRICS="%lyricsfile%"%haslyrics% -T "DISCNUMBER=%cdnumber%" -T "TOTALDISCS=%totalcds%" -T "TOTALTRACKS=%numtracks%" %hascover%--picture="%coverfile%"%hascover% %source% -o %dest%


TOC of the extracted CD

Track | Start | Length | Start sector | End sector
---------------------------------------------------------
1 | 0:00.00 | 3:20.15 | 0 | 15014
2 | 3:20.15 | 3:55.37 | 15015 | 32676
3 | 7:15.52 | 3:50.73 | 32677 | 49999
4 | 11:06.50 | 3:48.65 | 50000 | 67164
5 | 14:55.40 | 3:53.33 | 67165 | 84672
6 | 18:48.73 | 3:56.72 | 84673 | 102444
7 | 22:45.70 | 4:49.28 | 102445 | 124147
8 | 27:35.23 | 3:24.60 | 124148 | 139507
9 | 31:00.08 | 3:32.39 | 139508 | 155446
10 | 34:32.47 | 2:54.00 | 155447 | 168496
11 | 37:26.47 | 2:58.13 | 168497 | 181859
12 | 40:24.60 | 3:07.18 | 181860 | 195902
13 | 43:32.03 | 3:25.19 | 195903 | 211296
14 | 46:57.22 | 3:24.67 | 211297 | 226663
15 | 50:22.14 | 3:31.61 | 226664 | 242549


Range status and errors

Selected range

Filename C:\Documents and Settings\Borya\Desktop\spacuts7\Sparks - Sparks Shortcuts- The 7 Inch Mixes (Disc 1).wav

Peak level 98.8 %
Extraction speed 2.7 X
Range quality 99.9 %
Copy CRC 941DF8B0
Copy OK

No errors occurred


AccurateRip summary

Track 1 not present in database
Track 2 not present in database
Track 3 not present in database
Track 4 not present in database
Track 5 not present in database
Track 6 not present in database
Track 7 not present in database
Track 8 not present in database
Track 9 not present in database
Track 10 not present in database
Track 11 not present in database
Track 12 not present in database
Track 13 not present in database
Track 14 not present in database
Track 15 not present in database

None of the tracks are present in the AccurateRip database

End of status report

==== Log checksum 35B7BE4E7682475B2342B5FB0D6E94DCB5A728EC3EDD2A91A58064C76F8BE3BD ====

EAC log CD2
Exact Audio Copy V1.0 beta 3 from 29. August 2011

EAC extraction logfile from 18. January 2013, 16:57

Sparks / Sparks Shortcuts: The 7 Inch Mixes (Disc 2)

Used drive : SAMSUNG DVD-ROM SD-616E Adapter: 3 ID: 0

Read mode : Secure
Utilize accurate stream : Yes
Defeat audio cache : Yes
Make use of C2 pointers : No

Read offset correction : 12
Overread into Lead-In and Lead-Out : No
Fill up missing offset samples with silence : Yes
Delete leading and trailing silent blocks : No
Null samples used in CRC calculations : Yes
Used interface : Native Win32 interface for Win NT & 2000

Used output format : Internal WAV Routines
Sample format : 44.100 Hz; 16 Bit; Stereo


TOC of the extracted CD

Track | Start | Length | Start sector | End sector
---------------------------------------------------------
1 | 0:00.00 | 3:41.55 | 0 | 16629
2 | 3:41.55 | 3:41.27 | 16630 | 33231
3 | 7:23.07 | 3:39.45 | 33232 | 49701
4 | 11:02.52 | 4:54.27 | 49702 | 71778
5 | 15:57.04 | 4:35.61 | 71779 | 92464
6 | 20:32.65 | 3:43.11 | 92465 | 109200
7 | 24:16.01 | 2:49.50 | 109201 | 121925
8 | 27:05.51 | 3:56.65 | 121926 | 139690
9 | 31:02.41 | 3:31.04 | 139691 | 155519
10 | 34:33.45 | 3:28.70 | 155520 | 171189
11 | 38:02.40 | 3:23.58 | 171190 | 186472
12 | 41:26.23 | 2:59.22 | 186473 | 199919
13 | 44:25.45 | 4:45.53 | 199920 | 221347
14 | 49:11.23 | 4:22.52 | 221348 | 241049


Range status and errors

Selected range

Filename C:\Documents and Settings\Borya\Desktop\spacuts7\cd2\Sparks - Sparks Shortcuts- The 7 Inch Mixes (Disc 2).wav

Peak level 98.8 %
Extraction speed 3.9 X
Range quality 100.0 %
Copy CRC 2B53912A
Copy OK

No errors occurred


AccurateRip summary

Track 1 not present in database
Track 2 not present in database
Track 3 not present in database
Track 4 not present in database
Track 5 not present in database
Track 6 not present in database
Track 7 not present in database
Track 8 not present in database
Track 9 not present in database
Track 10 not present in database
Track 11 not present in database
Track 12 not present in database
Track 13 not present in database
Track 14 not present in database

None of the tracks are present in the AccurateRip database

End of status report

==== Log checksum FBC21B57EE934C3E0BC9AA0D502F69EA1B70164B5A31109A96FC19238C4363CB ====

------------------------------------------------------------

Exact Audio Copy V1.0 beta 3 from 29. August 2011

EAC extraction logfile from 18. January 2013, 17:19

Sparks / Sparks Shortcuts: The 7 Inch Mixes (Disc 2)

Used drive : SAMSUNG DVD-ROM SD-616E Adapter: 3 ID: 0

Read mode : Secure
Utilize accurate stream : Yes
Defeat audio cache : Yes
Make use of C2 pointers : No

Read offset correction : 12
Overread into Lead-In and Lead-Out : No
Fill up missing offset samples with silence : Yes
Delete leading and trailing silent blocks : No
Null samples used in CRC calculations : Yes
Used interface : Native Win32 interface for Win NT & 2000

Used output format : User Defined Encoder
Selected bitrate : 768 kBit/s
Quality : High
Add ID3 tag : No
Command line compressor : C:\Program Files\Exact Audio Copy\FLAC\FLAC.EXE
Additional command line options : -6 -V -T "ARTIST=%artist%" -T "TITLE=%title%" -T "ALBUM=%albumtitle%" -T "DATE=%year%" -T "TRACKNUMBER=%tracknr%" -T "GENRE=%genre%" -T "COMMENT=%comment%" -T "BAND=%albuminterpret%" -T "ALBUMARTIST=%albuminterpret%" -T "COMPOSER=%composer%" %haslyrics%--tag-from-file=LYRICS="%lyricsfile%"%haslyrics% -T "DISCNUMBER=%cdnumber%" -T "TOTALDISCS=%totalcds%" -T "TOTALTRACKS=%numtracks%" %hascover%--picture="%coverfile%"%hascover% %source% -o %dest%


TOC of the extracted CD

Track | Start | Length | Start sector | End sector
---------------------------------------------------------
1 | 0:00.00 | 3:41.55 | 0 | 16629
2 | 3:41.55 | 3:41.27 | 16630 | 33231
3 | 7:23.07 | 3:39.45 | 33232 | 49701
4 | 11:02.52 | 4:54.27 | 49702 | 71778
5 | 15:57.04 | 4:35.61 | 71779 | 92464
6 | 20:32.65 | 3:43.11 | 92465 | 109200
7 | 24:16.01 | 2:49.50 | 109201 | 121925
8 | 27:05.51 | 3:56.65 | 121926 | 139690
9 | 31:02.41 | 3:31.04 | 139691 | 155519
10 | 34:33.45 | 3:28.70 | 155520 | 171189
11 | 38:02.40 | 3:23.58 | 171190 | 186472
12 | 41:26.23 | 2:59.22 | 186473 | 199919
13 | 44:25.45 | 4:45.53 | 199920 | 221347
14 | 49:11.23 | 4:22.52 | 221348 | 241049


Range status and errors

Selected range

Filename C:\Documents and Settings\Borya\Desktop\spacuts7\cd2\Sparks - Sparks Shortcuts- The 7 Inch Mixes (Disc 2).wav

Peak level 98.8 %
Extraction speed 2.8 X
Range quality 100.0 %
Copy CRC 2B53912A
Copy OK

No errors occurred


AccurateRip summary

Track 1 not present in database
Track 2 not present in database
Track 3 not present in database
Track 4 not present in database
Track 5 not present in database
Track 6 not present in database
Track 7 not present in database
Track 8 not present in database
Track 9 not present in database
Track 10 not present in database
Track 11 not present in database
Track 12 not present in database
Track 13 not present in database
Track 14 not present in database

None of the tracks are present in the AccurateRip database

End of status report

==== Log checksum AAB547F614123ADFD3D1EDEEAB83E145E8DA8E81D3C0D3700C27EE04AD86F165 ====


Thanks to Boris1!



ADVERTISING » Click here to download Ebooks/Magazines for free « ADVERTISING


No comments for the news