Loading...

Metallica - Club Fan Can #2 San Francisco Slim's Club - 1997 [CD and VHS-Rip]

Posted By : v3122 | Date : 23 Dec 2009 14:27:07 | Comments : 8 |
|


cover

Metallica - Club Fan Can #2 San Francisco Slim's Club - 1997 [CD and VHS-Rip]
FLAC(Tracks) + Cue + Log | EAC Rip | XVID 544x416 25.00fps 1835Kbps | MPEG Audio Layer 3 48000Hz stereo 96Kbps
Genre: Thrash Metal | Cat# FC-002 | ~396 + 1360Mb | SM.com + FS.com

This is 2nd CD From the Metclub FanCan#2.This is a few tracks of Metallica Live for a Members-Only Club Show at San Francisco Slim's Club on June 9th & 10th 1996

Tracklist CD:

1 "Fade To Black"
2 "King Nothing"
3 "One"
4 "Wherever I May Roam"
5 "Nothing Else Matters"
6 "Last Caress"
7 "Master Of Puppets"
8 "Overkill"
9 "Motorbreath"

EAC Log
Exact Audio Copy V0.99 prebeta 4 from 23. January 2008

EAC extraction logfile from 31. January 2009, 15:33

Metallica / Fan Can #2

Used drive : HL-DT-STCD-ROM GCR-8481B Adapter: 1 ID: 0

Read mode : Secure
Utilize accurate stream : Yes
Defeat audio cache : Yes
Make use of C2 pointers : No

Read offset correction : -24
Overread into Lead-In and Lead-Out : No
Fill up missing offset samples with silence : Yes
Delete leading and trailing silent blocks : No
Null samples used in CRC calculations : Yes
Used interface : Native Win32 interface for Win NT & 2000
Gap handling : Appended to previous track

Used output format : User Defined Encoder
Selected bitrate : 192 kBit/s
Quality : High
Add ID3 tag : No
Command line compressor : C:\Program Files\FLAC\flac.exe
Additional command line options : -8 -V -T "ARTIST=%a" -T "TITLE=%t" -T "ALBUM=%g" -T "DATE=%y" -T "TRACKNUMBER=%n" -T "GENRE=%m" -T "COMMENT=EAC FLAC -8" %s


TOC of the extracted CD

Track | Start | Length | Start sector | End sector
---------------------------------------------------------
1 | 0:00.32 | 8:46.20 | 32 | 39501
2 | 8:46.52 | 7:18.63 | 39502 | 72414
3 | 16:05.40 | 7:55.72 | 72415 | 108111
4 | 24:01.37 | 7:16.70 | 108112 | 140881
5 | 31:18.32 | 6:03.13 | 140882 | 168119
6 | 37:21.45 | 2:00.10 | 168120 | 177129
7 | 39:21.55 | 4:00.12 | 177130 | 195141
8 | 43:21.67 | 4:54.68 | 195142 | 217259
9 | 48:16.60 | 5:22.62 | 217260 | 241471


Track 1

Filename C:\Documents and Settings\MDP\My Documents\Azureus Downloads\Metallica - FanCan 2 (1997) [FLAC] (2nd Metclub CD)\01 - Fade To Black.wav

Pre-gap length 0:00:02.42

Peak level 100.0 %
Track quality 100.0 %
Test CRC 9CD7C2E5
Copy CRC 9CD7C2E5
Track not present in AccurateRip database
Copy OK

Track 2

Filename C:\Documents and Settings\MDP\My Documents\Azureus Downloads\Metallica - FanCan 2 (1997) [FLAC] (2nd Metclub CD)\02 - King Nothing.wav

Pre-gap length 0:00:00.04

Peak level 100.0 %
Track quality 100.0 %
Test CRC 5C88A2B1
Copy CRC 5C88A2B1
Track not present in AccurateRip database
Copy OK

Track 3

Filename C:\Documents and Settings\MDP\My Documents\Azureus Downloads\Metallica - FanCan 2 (1997) [FLAC] (2nd Metclub CD)\03 - One.wav

Pre-gap length 0:00:00.02

Peak level 100.0 %
Track quality 100.0 %
Test CRC 93BFD391
Copy CRC 93BFD391
Track not present in AccurateRip database
Copy OK

Track 4

Filename C:\Documents and Settings\MDP\My Documents\Azureus Downloads\Metallica - FanCan 2 (1997) [FLAC] (2nd Metclub CD)\04 - Wherever I May Roam.wav

Pre-gap length 0:00:01.73

Peak level 100.0 %
Track quality 100.0 %
Test CRC 63E8A7E7
Copy CRC 63E8A7E7
Track not present in AccurateRip database
Copy OK

Track 5

Filename C:\Documents and Settings\MDP\My Documents\Azureus Downloads\Metallica - FanCan 2 (1997) [FLAC] (2nd Metclub CD)\05 - Nothing Else Matters.wav

Peak level 100.0 %
Track quality 100.0 %
Test CRC C7F2A978
Copy CRC C7F2A978
Track not present in AccurateRip database
Copy OK

Track 6

Filename C:\Documents and Settings\MDP\My Documents\Azureus Downloads\Metallica - FanCan 2 (1997) [FLAC] (2nd Metclub CD)\06 - Last Caress.wav

Pre-gap length 0:00:00.74

Peak level 100.0 %
Track quality 100.0 %
Test CRC 9DE347DE
Copy CRC 9DE347DE
Track not present in AccurateRip database
Copy OK

Track 7

Filename C:\Documents and Settings\MDP\My Documents\Azureus Downloads\Metallica - FanCan 2 (1997) [FLAC] (2nd Metclub CD)\07 - Master Of Puppets.wav

Pre-gap length 0:00:00.06

Peak level 100.0 %
Track quality 100.0 %
Test CRC BF955DA1
Copy CRC BF955DA1
Track not present in AccurateRip database
Copy OK

Track 8

Filename C:\Documents and Settings\MDP\My Documents\Azureus Downloads\Metallica - FanCan 2 (1997) [FLAC] (2nd Metclub CD)\08 - Overkill.wav

Pre-gap length 0:00:00.10

Peak level 100.0 %
Track quality 100.0 %
Test CRC 777CDE30
Copy CRC 777CDE30
Track not present in AccurateRip database
Copy OK

Track 9

Filename C:\Documents and Settings\MDP\My Documents\Azureus Downloads\Metallica - FanCan 2 (1997) [FLAC] (2nd Metclub CD)\09 - Motorbreath.wav

Pre-gap length 0:00:00.01

Peak level 100.0 %
Track quality 100.0 %
Test CRC 9E76C5D3
Copy CRC 9E76C5D3
Track not present in AccurateRip database
Copy OK


None of the tracks are present in the AccurateRip database

No errors occurred

End of status report

Audiochecker Log
AUDIOCHECKER v2.0 beta (build 457) - by Dester - opdester@freemail.hu
~~~~~~~~~~~~~~~~~~~~~~~~~~~~~~~~~~
-=== DO NOT EDIT THIS FILE! ===-

Path: ...\Metallica - FanCan 2 (1997) [FLAC] (2nd Metclub CD)

01 -=- 01 - Fade To Black.flac -=- CDDA (100%)
02 -=- 02 - King Nothing.flac -=- CDDA (100%)
03 -=- 03 - One.flac -=- CDDA (100%)
04 -=- 04 - Wherever I May Roam.flac -=- CDDA (100%)
05 -=- 05 - Nothing Else Matters.flac -=- CDDA (99%)
06 -=- 06 - Last Caress.flac -=- CDDA (99%)
07 -=- 07 - Master Of Puppets.flac -=- CDDA (99%)
08 -=- 08 - Overkill.flac -=- CDDA (100%)
09 -=- 09 - Motorbreath.flac -=- CDDA (100%)

Summary 99,67% CDDA

209822580

f1

f3

f4


See Also:
Metallica - Club Fan Can #1 (stupid shit 1996) or reasons not to be a fan anymore - CD and VHS-Rip

Продолжение следует...

ADVERTISING » Free Fast Download! « ADVERTISING


Posted By: madman19 Date: 23 Dec 2009 15:39:33
Thank you again v3122 for this awesome post and for everything you have brought to AvaxHome. The tracks in Flac & the Video are very much appreciated. You Rule!!
Posted By: v3122 Date: 23 Dec 2009 16:19:43
@ madman19
Thank you!
Posted By: sucht Date: 30 Jan 2010 13:51:48
thank you, you rock!!!

anyway the FLAC links are all down could you please reupload them?

thank you.
Posted By: liveshowz Date: 03 Feb 2010 16:41:57
Video & Flac on Rapidshare are down.. reupload would be great/... Txx
Posted By: JohnZ Date: 26 Feb 2010 12:40:43
Thank you for this "sensational" post! about the links, only Letitbit are working! Thanks!
Posted By: TomInPhilly Date: 11 Mar 2010 10:13:52
Thank you!!!!!!!!!!
Posted By: pina666 Date: 08 Jul 2010 10:11:45
can anybody upload the first part of the video, or send me a link? the letitbit links are working except the first one...
Posted By: HetJamesfield Date: 21 Jul 2010 15:01:52
Can anybody reup the CD and the Video on TB and/or RS, please? THX!