Loading...

Metallica - The $5.98 E.P. Garage Days Re-Revisited (1987) (Japan 28DP 808) RE-UPPED

Posted By : apocalipsys2014 | Date : 13 Jun 2013 06:00:00 | Comments : 4 |
|



Metallica - The $5.98 E.P. Garage Days Re-Revisited (1987)
Year & Label: 1987 CBS/Sony Records Japan | CD#: 28DP 808
Flac (image) | MP3 CBR 320 Kbps | Artwork (JPG, 300 dpi) | File-hosts: Uploaded.net
Thrash Metal | FLAC: 180 MB | Artwork: 50 MB | MP3: 60 MB | 5% WinRAR Recovery

EAC Secure-rip with LOG+CUE+COVERS | Source: torrents
Non-remastered, Japanese 1st Press CD.

Following Cliff Burton's death, Metallica took some time off and initiated new bassist Jason Newsted with a raw, unpolished EP of covers originally recorded by Diamond Head, Holocaust, Killing Joke, Budgie, and the Misfits. Most fit the band's style quite well; only "Last Caress" sounds out of place, as the original seemed looser and more dangerous. As a showcase for some strong metal riffs and material by mostly underground bands, the EP works quite well.

~ allmusic.com

Metallica Official Homepage
Metallica at Wikipedia
Metallica at MySpace

Musicians:

Vocals, Guitar: James Hetfield
Guitar : Kirk Hammett
Bass : Jason Newsted
Drums : Lars Ulrich

Engineered by Csaba "The Hut" Petocz.
Recorded and mixed at A&M, & Conway, Los Angeles.
Assistant engineers: Greg Dennen , Marnie Riley.
Mastered by Ron Lewter at The Mastering Lab, L.A.

Track List, CD1:

01. Helpless [6:39]
02. The Small Hours [6:42]
03. The Wait [4:55]
04. Crash Course In Brain Surgery [3:10]
05. Last Caress/Green Hell [3:29]

EAC extraction logfile
Exact Audio Copy V0.99 prebeta 3 from 28. July 2007

Отчёт EAC об извлечении, выполненном 19. июня 2011, 21:41

Metallica / The $5.98 E.P. Garage Days Re-Revisited (Japan, 28DP 808)

Дисковод: TSSTcorpCDDVDW SH-S202H Adapter: 0 ID: 0

Режим чтения : Достоверность
Использование точного потока : Да
Отключение кэша аудио : Да
Использование указателей C2 : Нет

Коррекция смещения при чтении : 6
Способность читать области Lead-in и Lead-out : Нет
Заполнение пропущенных сэмплов тишиной : Да
Удаление блоков с тишиной в начале и конце : Нет
При вычислениях CRC использовались нулевые сэмплы : Да
Интерфейс : Встроенный Win32-интерфейс для Win NT/2000

Выходной формат : Внутренние WAV-операции
Формат сэмплов : 44.100 Гц; 16 бит; стерео


TOC извлечённого CD

Трек | Старт | Длительность | Начальный сектор | Конечный сектор
---------------------------------------------------------------------
1 | 0:00.00 | 6:39.15 | 0 | 29939
2 | 6:39.15 | 6:42.15 | 29940 | 60104
3 | 13:21.30 | 4:55.02 | 60105 | 82231
4 | 18:16.32 | 3:10.18 | 82232 | 96499
5 | 21:26.50 | 3:29.32 | 96500 | 112206


Характеристики диапазона извлечения и сообщения об ошибках

Выбранный диапазон

Имя файла C:\Downloads\EAC\Metallica - The $5.98 E.P. Garage Days Re-Revisited (Japan, 28DP 808).wav

Пиковый уровень 100.0 %
Качество диапазона 100.0 %
CRC теста DDFFDB2E
CRC копии DDFFDB2E
Копирование... OK

Ошибок не произошло


AccurateRip: сводка

Трек 1 точное извлечение (доверие 5) [7D1DCFF3]
Трек 2 точное извлечение (доверие 5) [F0D6CCDE]
Трек 3 точное извлечение (доверие 5) [B94AEE51]
Трек 4 точное извлечение (доверие 5) [4402ACB4]
Трек 5 точное извлечение (доверие 5) [14B798F3]

Все треки извлечены точно

Конец отчёта

Not my rip, not my scan-job. Thx very much to the original uploader bki71!
5% WinRar Recovery Record for all files.
Try before you might buy. Support the artists you like and buy their stuff whenever you can afford it.

FLAC, image + artwork or mp3 at Uploaded.net:
FLAC | Artwork | Mp3 320 kbps

ADVERTISING » Click here to download Ebooks/Magazines for free « ADVERTISING


Posted By: claudioalbino56 Date: 15 Sep 2011 18:25:49
THANKS GREAT POST PLEASE KISS JAPAN [ KISS JAPAN PORQUE E TAO DIFICIEL DE POST PODE RESPONDER THANKS FROM BRAZIL RIO DE JANEIRO POIS SOU MUITO CRAZY PELO KISS EMMMMM]
Posted By: MilMascaras Date: 16 Sep 2011 01:28:51
Nice ! Thanks !
Posted By: ra1apm Date: 17 Sep 2011 01:30:51
SSSSSSSSSS... Me hace recordar buenos tiempos, muchisimas gracias.
Posted By: FrancyD Date: 27 Jul 2013 22:08:00
Thanks to bki71 and apocalipsys2012 for this post!!