Loading...

Michael Schenker Group - Walk The Stage: The Official Bootleg Box Set (4cd+dvd) (2012)

Posted By : uff | Date : 26 Apr 2013 09:25:28 | Comments : 1 |
|



Michael Schenker Group - Walk The Stage: The Official Bootleg Box Set (4cd+dvd) (2012)
DVD5 | VIDEO_TS | MPEG-2 Video, NTSC 4:3 (720:480), 29.97fps, 7702kbps | DD 2.0, 448kbps | 75 min | 4400Mb
4CD | Flac + Cue + Log | 2300Mb
heavy metal | EMI-Chrysalis TOCP-95097-90 | SHM-CD-s | HQ covers | recorded: 1980-83

This is a great addition to the other multi-disc live box-sets that feature Michael Schenker (Back to Attack, Reactivate Live, Mad Axeman Live, and recently a UFO "Bootleg" release to add to UFO's Live on Earth). Three of the five discs are not available elsewhere, disc four is the Reading festival appearance from 1982, previously released as MSG BBC Radio 1 Live, and disc 5 was previously available as a bootlegged DVD of a gig from London Hammersmith, 1983. The recordings are generally of higher quality than Back to Attack and Reactivate Live, and some stunning moments are captured. This recording is great for getting hold of Reading 1982 as the previous release is these days often either rare or expensive or both. The Reading gig by itself is worth shelling out for - but really anything by Michael is worth getting hold of - simply because he's arguably the greatest natural musical talent alive today.

Tracks:
cd1: Live At Hammersmith 25th September 1980
-1 Armed And Ready
-2 Cry For The Nations
-3 Victim Of Illusion
-4 Natural Thing
-5 Feels Like A Good Thing
-6 Into The Arena
-7 Looking Out From Nowhere
-8 Rock Bottom
-9 Tales Of Mystery
-10 Lost Horizons
-11 Shoot Shoot
-12 Doctor Doctor
-13 Lights Out

cd2: Live At The Osaka Festival Hall 19th August 1981 (Afternoon Show)
-1 Armed And Ready
-2 Cry For The Nations
-3 Attack Of The Mad Axeman
-4 But I Want More
-5 Victim Of Illusion
-6 Into The Arena
-7 On And On
-8 Never Trust A Stranger
-9 Let Sleeping Dogs Lie
-10 Tales Of Mystery
-11 Lost Horizons
-12 Doctor Doctor
-13 Ready To Rock

cd3: The Osaka Festival Hall 19th August 1981 (Evening Show)
-1 Armed And Ready
-2 Cry For The Nations
-3 Attack Of The Mad Axeman
-4 But I Want More
-5 Victim Of Illusion
-6 Into The Arena
-7 On And On
-8 Never Trust A Stranger
-9 Let Sleeping Dogs Lie
-10 Tales Of Mystery
-11 Courvoisier Concert
-12 Lost Horizons
-13 Doctor Doctor
-14 Ready To Rock

cd4: Live At The Reading Festival 29th August 1982
-1 Armed And Ready
-2 Cry For The Nations
-3 Attack Of The Mad Axeman
-4 But I Want More
-5 Rock You To The Ground
-6 Bijou Pleasurette
-7 Feels Like A Good Thing
-8 Let Sleeping Dogs Lie
-9 Courvoisier Concert
-10 Lost Horizons
-11 Doctor Doctor

dvd: Live At Hammersmith Odeon, 22nd-23rd October 1983
-- Intro
-1 Captain Nemo
-2 Rock My Nights Away
-3 Ready To Rock
-4 Cry For The Nations
-5 Rock You To The Ground
-6 Attack Of The Mad Axeman
-7 Into The Arena
-8 Courvoisier Concert
-9 Dream On (Rock Will Never Die)
-10 Desert Song
-11 I'm Gonna Make You Mine
-12 Red Sky
-13 Looking For Love
-14 Armed And Ready
-15 Doctor Doctor / End Credits

combined eac log:
Exact Audio Copy V1.0 beta 3 from 29. August 2011

EAC extraction logfile from 10. August 2012, 12:19

The Michael Schenker Group / Walk The Stage: The Official Bootleg CD1 Hammersmith Odeon

Used drive : HL-DT-STDVDRAM GSA-H60N Adapter: 2 ID: 0

Read mode : Secure
Utilize accurate stream : Yes
Defeat audio cache : Yes
Make use of C2 pointers : No

Read offset correction : 667
Overread into Lead-In and Lead-Out : No
Fill up missing offset samples with silence : Yes
Delete leading and trailing silent blocks : No
Null samples used in CRC calculations : Yes
Used interface : Native Win32 interface for Win NT & 2000

Used output format : Internal WAV Routines
Sample format : 44.100 Hz; 16 Bit; Stereo


TOC of the extracted CD

Track | Start | Length | Start sector | End sector
---------------------------------------------------------
1 | 0:00.00 | 4:41.24 | 0 | 21098
2 | 4:41.24 | 5:50.46 | 21099 | 47394
3 | 10:31.70 | 6:33.71 | 47395 | 76940
4 | 17:05.66 | 3:30.69 | 76941 | 92759
5 | 20:36.60 | 4:20.52 | 92760 | 112311
6 | 24:57.37 | 4:43.13 | 112312 | 133549
7 | 29:40.50 | 6:18.25 | 133550 | 161924
8 | 35:59.00 | 11:02.10 | 161925 | 211584
9 | 47:01.10 | 3:56.73 | 211585 | 229357
10 | 50:58.08 | 11:10.39 | 229358 | 279646
11 | 62:08.47 | 3:36.09 | 279647 | 295855
12 | 65:44.56 | 6:29.42 | 295856 | 325072
13 | 72:14.23 | 5:18.07 | 325073 | 348929


Range status and errors

Selected range

Filename C:\Documents and Settings\Admin\??????? ????\Lossless Galaxy Rip by ALLexxess\Michael Schenker Group\2012 Walk The Stage - Official Bootleg Box Set (4SHM-CD + DVD EMI Music Japan)\CD1\MSG Official Bootleg CD1.wav

Peak level 99.8 %
Extraction speed 6.4 X
Range quality 100.0 %
Test CRC CF97D7A7
Copy CRC CF97D7A7
Copy OK

No errors occurred


AccurateRip summary

Track 1 cannot be verified as accurate (confidence 4) [CE927854], AccurateRip returned [DFC1C269] (AR v2)
Track 2 cannot be verified as accurate (confidence 4) [CF471B43], AccurateRip returned [3F91B709] (AR v2)
Track 3 cannot be verified as accurate (confidence 4) [4462F803], AccurateRip returned [903D2A23] (AR v2)
Track 4 cannot be verified as accurate (confidence 4) [88AB0BDA], AccurateRip returned [B296CE6D] (AR v2)
Track 5 cannot be verified as accurate (confidence 4) [0DE4EFEE], AccurateRip returned [AF8FE356] (AR v2)
Track 6 cannot be verified as accurate (confidence 4) [6EE763C6], AccurateRip returned [C259C489] (AR v2)
Track 7 cannot be verified as accurate (confidence 4) [8ED24893], AccurateRip returned [E578F2A9] (AR v2)
Track 8 cannot be verified as accurate (confidence 4) [86E1303E], AccurateRip returned [8BD7F479] (AR v2)
Track 9 cannot be verified as accurate (confidence 4) [941705B5], AccurateRip returned [9351B507] (AR v2)
Track 10 cannot be verified as accurate (confidence 4) [37952A33], AccurateRip returned [C5D8E60C] (AR v2)
Track 11 cannot be verified as accurate (confidence 4) [568B8B86], AccurateRip returned [A04556CF] (AR v2)
Track 12 cannot be verified as accurate (confidence 3) [1B666F15], AccurateRip returned [C3ABA4DF] (AR v2)
Track 13 cannot be verified as accurate (confidence 4) [828EF59E], AccurateRip returned [A3E58455] (AR v2)

No tracks could be verified as accurate
You may have a different pressing from the one(s) in the database

End of status report

==== Log checksum 22B294873656A691C8F1DFA99C816B2F29D40EF478B5FFD3AE7E04F2B696FFB6 ====
----
Exact Audio Copy V1.0 beta 3 from 29. August 2011

EAC extraction logfile from 10. August 2012, 13:27

The Michael Schenker Group / Walk The Stage: The Official Bootleg CD2 Osaka Festival Hall

Used drive : HL-DT-STDVDRAM GSA-H60N Adapter: 2 ID: 0

Read mode : Secure
Utilize accurate stream : Yes
Defeat audio cache : Yes
Make use of C2 pointers : No

Read offset correction : 667
Overread into Lead-In and Lead-Out : No
Fill up missing offset samples with silence : Yes
Delete leading and trailing silent blocks : No
Null samples used in CRC calculations : Yes
Used interface : Native Win32 interface for Win NT & 2000

Used output format : Internal WAV Routines
Sample format : 44.100 Hz; 16 Bit; Stereo


TOC of the extracted CD

Track | Start | Length | Start sector | End sector
---------------------------------------------------------
1 | 0:00.00 | 4:33.13 | 0 | 20487
2 | 4:33.13 | 5:27.72 | 20488 | 45084
3 | 10:01.10 | 5:02.45 | 45085 | 67779
4 | 15:03.55 | 7:38.15 | 67780 | 102144
5 | 22:41.70 | 5:14.35 | 102145 | 125729
6 | 27:56.30 | 5:47.47 | 125730 | 151801
7 | 33:44.02 | 6:10.59 | 151802 | 179610
8 | 39:54.61 | 5:45.09 | 179611 | 205494
9 | 45:39.70 | 7:04.59 | 205495 | 237353
10 | 52:44.54 | 3:46.32 | 237354 | 254335
11 | 56:31.11 | 7:31.65 | 254336 | 288225
12 | 64:03.01 | 5:43.24 | 288226 | 313974
13 | 69:46.25 | 7:21.40 | 313975 | 347089


Range status and errors

Selected range

Filename C:\Documents and Settings\Admin\??????? ????\Lossless Galaxy Rip by ALLexxess\Michael Schenker Group\2012 Walk The Stage - Official Bootleg Box Set (4SHM-CD + DVD EMI Music Japan)\CD2\MSG Official Bootleg CD2.wav

Peak level 88.4 %
Extraction speed 6.4 X
Range quality 100.0 %
Test CRC 6DE8A701
Copy CRC 6DE8A701
Copy OK

No errors occurred


AccurateRip summary

Track 1 cannot be verified as accurate (confidence 3) [9AF18F40], AccurateRip returned [168EE52C] (AR v2)
Track 2 cannot be verified as accurate (confidence 3) [BA81CC4A], AccurateRip returned [EB7F30FC] (AR v2)
Track 3 cannot be verified as accurate (confidence 3) [4AB34959], AccurateRip returned [C1461AA4] (AR v2)
Track 4 cannot be verified as accurate (confidence 3) [DAAFBF28], AccurateRip returned [A5950184] (AR v2)
Track 5 cannot be verified as accurate (confidence 3) [9275149A], AccurateRip returned [BBC58619] (AR v2)
Track 6 cannot be verified as accurate (confidence 3) [9F30882F], AccurateRip returned [8033ACD0] (AR v2)
Track 7 cannot be verified as accurate (confidence 3) [AE88CB60], AccurateRip returned [16023CFE] (AR v2)
Track 8 cannot be verified as accurate (confidence 3) [523BC675], AccurateRip returned [54537380] (AR v2)
Track 9 cannot be verified as accurate (confidence 3) [8E2FA28B], AccurateRip returned [B2CBAE8F] (AR v2)
Track 10 cannot be verified as accurate (confidence 3) [C40521C1], AccurateRip returned [E332C3CB] (AR v2)
Track 11 cannot be verified as accurate (confidence 3) [67347645], AccurateRip returned [B263C1EA] (AR v2)
Track 12 cannot be verified as accurate (confidence 2) [CFACEC4E], AccurateRip returned [3A841F5D] (AR v2)
Track 13 cannot be verified as accurate (confidence 3) [A110799B], AccurateRip returned [14A97A1C] (AR v2)

No tracks could be verified as accurate
You may have a different pressing from the one(s) in the database

End of status report

==== Log checksum AF6E8CE0E453AE13AF5F92CB7BE33589E15E1B95373769D81535A66CB8E27E14 ====
-----
Exact Audio Copy V1.0 beta 3 from 29. August 2011

EAC extraction logfile from 10. August 2012, 14:18

The Michael Schenker Group / Walk The Stage: The Official Bootleg CD3 Osaka Festival Hall

Used drive : HL-DT-STDVDRAM GSA-H60N Adapter: 2 ID: 0

Read mode : Secure
Utilize accurate stream : Yes
Defeat audio cache : Yes
Make use of C2 pointers : No

Read offset correction : 667
Overread into Lead-In and Lead-Out : No
Fill up missing offset samples with silence : Yes
Delete leading and trailing silent blocks : No
Null samples used in CRC calculations : Yes
Used interface : Native Win32 interface for Win NT & 2000

Used output format : Internal WAV Routines
Sample format : 44.100 Hz; 16 Bit; Stereo


TOC of the extracted CD

Track | Start | Length | Start sector | End sector
---------------------------------------------------------
1 | 0:00.00 | 4:33.35 | 0 | 20509
2 | 4:33.35 | 5:24.46 | 20510 | 44855
3 | 9:58.06 | 5:10.10 | 44856 | 68115
4 | 15:08.16 | 7:34.44 | 68116 | 102209
5 | 22:42.60 | 5:12.24 | 102210 | 125633
6 | 27:55.09 | 5:38.62 | 125634 | 151045
7 | 33:33.71 | 5:46.19 | 151046 | 177014
8 | 39:20.15 | 5:27.18 | 177015 | 201557
9 | 44:47.33 | 6:59.34 | 201558 | 233016
10 | 51:46.67 | 3:57.67 | 233017 | 250858
11 | 55:44.59 | 2:39.26 | 250859 | 262809
12 | 58:24.10 | 8:15.44 | 262810 | 299978
13 | 66:39.54 | 6:05.53 | 299979 | 327406
14 | 72:45.32 | 6:52.42 | 327407 | 358348


Range status and errors

Selected range

Filename C:\Documents and Settings\Admin\??????? ????\Lossless Galaxy Rip by ALLexxess\Michael Schenker Group\2012 Walk The Stage - Official Bootleg Box Set (4SHM-CD + DVD EMI Music Japan)\CD3\MSG Official Bootleg CD3.wav

Peak level 88.4 %
Extraction speed 6.4 X
Range quality 100.0 %
Test CRC 7301EC45
Copy CRC 7301EC45
Copy OK

No errors occurred


AccurateRip summary

Track 1 cannot be verified as accurate (confidence 3) [6BA8E6F8], AccurateRip returned [3BD8747B] (AR v2)
Track 2 cannot be verified as accurate (confidence 3) [3F029AF5], AccurateRip returned [9B4D207D] (AR v2)
Track 3 cannot be verified as accurate (confidence 3) [10267467], AccurateRip returned [244C55DC] (AR v2)
Track 4 cannot be verified as accurate (confidence 3) [E957D61C], AccurateRip returned [10298FA0] (AR v2)
Track 5 cannot be verified as accurate (confidence 3) [7AD70671], AccurateRip returned [2ACAEFFD] (AR v2)
Track 6 cannot be verified as accurate (confidence 3) [CC0B7786], AccurateRip returned [F1ACA267] (AR v2)
Track 7 cannot be verified as accurate (confidence 3) [F1FDAFA8], AccurateRip returned [3F30F6C2] (AR v2)
Track 8 cannot be verified as accurate (confidence 3) [B5C7DF02], AccurateRip returned [A51E7B6C] (AR v2)
Track 9 cannot be verified as accurate (confidence 3) [46290CF0], AccurateRip returned [C5824B1B] (AR v2)
Track 10 cannot be verified as accurate (confidence 3) [EFE048A7], AccurateRip returned [40DCDB3A] (AR v2)
Track 11 cannot be verified as accurate (confidence 3) [0D70AA74], AccurateRip returned [333097F6] (AR v2)
Track 12 cannot be verified as accurate (confidence 3) [D1AAE73E], AccurateRip returned [E984A055] (AR v2)
Track 13 cannot be verified as accurate (confidence 3) [F6ECE0D5], AccurateRip returned [E223E863] (AR v2)
Track 14 cannot be verified as accurate (confidence 2) [9BD878CF], AccurateRip returned [1F396FC8] (AR v2)

No tracks could be verified as accurate
You may have a different pressing from the one(s) in the database

End of status report

==== Log checksum E74A2DDD874BBA2DE374C93B558E52739038FAE7D7480F1FEAE5E2222913177B ====
---
Exact Audio Copy V1.0 beta 3 from 29. August 2011

EAC extraction logfile from 10. August 2012, 18:06

The Michael Schenker Group / Walk The Stage: The Official Bootleg CD4 Reading Rock Festival

Used drive : HL-DT-STDVDRAM GSA-H60N Adapter: 2 ID: 0

Read mode : Secure
Utilize accurate stream : Yes
Defeat audio cache : Yes
Make use of C2 pointers : No

Read offset correction : 667
Overread into Lead-In and Lead-Out : No
Fill up missing offset samples with silence : Yes
Delete leading and trailing silent blocks : No
Null samples used in CRC calculations : Yes
Used interface : Native Win32 interface for Win NT & 2000

Used output format : Internal WAV Routines
Sample format : 44.100 Hz; 16 Bit; Stereo


TOC of the extracted CD

Track | Start | Length | Start sector | End sector
---------------------------------------------------------
1 | 0:00.00 | 4:26.37 | 0 | 19986
2 | 4:26.37 | 5:08.36 | 19987 | 43122
3 | 9:34.73 | 4:44.06 | 43123 | 64428
4 | 14:19.04 | 7:01.46 | 64429 | 96049
5 | 21:20.50 | 6:06.55 | 96050 | 123554
6 | 27:27.30 | 2:20.06 | 123555 | 134060
7 | 29:47.36 | 4:59.09 | 134061 | 156494
8 | 34:46.45 | 6:53.30 | 156495 | 187499
9 | 41:40.00 | 5:23.31 | 187500 | 211755
10 | 47:03.31 | 7:04.71 | 211756 | 243626
11 | 54:08.27 | 7:54.11 | 243627 | 279187


Range status and errors

Selected range

Filename C:\Documents and Settings\Admin\??????? ????\Lossless Galaxy Rip by ALLexxess\Michael Schenker Group\2012 Walk The Stage - Official Bootleg Box Set (4SHM-CD + DVD EMI Music Japan)\CD4\MSG Official Bootleg CD4.wav

Peak level 99.2 %
Extraction speed 6.3 X
Range quality 100.0 %
Test CRC 6CF0EC05
Copy CRC 6CF0EC05
Copy OK

No errors occurred


AccurateRip summary

Track 1 cannot be verified as accurate (confidence 3) [1686D07E], AccurateRip returned [6BC5C24F] (AR v2)
Track 2 cannot be verified as accurate (confidence 3) [B502266E], AccurateRip returned [C270F2CD] (AR v2)
Track 3 cannot be verified as accurate (confidence 3) [6468D585], AccurateRip returned [25870866] (AR v2)
Track 4 cannot be verified as accurate (confidence 3) [7F19D5B6], AccurateRip returned [B9333AE7] (AR v2)
Track 5 cannot be verified as accurate (confidence 3) [58533C0D], AccurateRip returned [C594107F] (AR v2)
Track 6 cannot be verified as accurate (confidence 3) [53B3AA0C], AccurateRip returned [B107A7A3] (AR v2)
Track 7 cannot be verified as accurate (confidence 3) [0E3A766E], AccurateRip returned [B7CD929E] (AR v2)
Track 8 cannot be verified as accurate (confidence 3) [2491F5B0], AccurateRip returned [57506128] (AR v2)
Track 9 cannot be verified as accurate (confidence 3) [BFBBBB13], AccurateRip returned [42C6A687] (AR v2)
Track 10 cannot be verified as accurate (confidence 3) [98196A9D], AccurateRip returned [675E058C] (AR v2)
Track 11 cannot be verified as accurate (confidence 3) [9F8D7C76], AccurateRip returned [8E7189B5] (AR v2)

No tracks could be verified as accurate
You may have a different pressing from the one(s) in the database

End of status report

==== Log checksum 1A620F50667908952DC2E7F74EC205AF5C5D62A23E774C2895EE0645487B8E36 ====


cuetools reports:
[CUETools log; Date: 2013.04.22. 11:19:09; Version: 2.1.4]
[CTDB TOCID: _W2C5KpRKLvtZgJc22zGlkEf1SI-] found.
Track | CTDB Status
1 | (2/2) Accurately ripped
2 | (2/2) Accurately ripped
3 | (2/2) Accurately ripped
4 | (2/2) Accurately ripped
5 | (2/2) Accurately ripped
6 | (2/2) Accurately ripped
7 | (2/2) Accurately ripped
8 | (2/2) Accurately ripped
9 | (2/2) Accurately ripped
10 | (2/2) Accurately ripped
11 | (2/2) Accurately ripped
12 | (2/2) Accurately ripped
13 | (2/2) Accurately ripped
[AccurateRip ID: 0023a6af-016b1649-b1122c0d] found.
Track [ CRC | V2 ] Status
01 [7b0a5f9c|ce927854] (0+0/4) No match
02 [0cce30e7|cf471b43] (0+0/4) No match
03 [177174cd|4462f803] (0+0/4) No match
04 [a410e9ba|88ab0bda] (0+0/4) No match
05 [4b433fcf|0de4efee] (0+0/4) No match
06 [3294ac2d|6ee763c6] (0+0/4) No match
07 [3ce72ab8|8ed24893] (0+0/4) No match
08 [f59af491|86e1303e] (0+0/4) No match
09 [128e7e49|941705b5] (0+0/4) No match
10 [bef103d0|37952a33] (0+0/4) No match
11 [db90580e|568b8b86] (0+0/4) No match
12 [97c0dd8b|1b666f15] (0+0/3) No match
13 [d829923a|828ef59e] (0+0/4) No match
Offsetted by -12:
01 [dfc1c269] (4/4) Accurately ripped
02 [3f91b709] (4/4) Accurately ripped
03 [903d2a23] (4/4) Accurately ripped
04 [b296ce6d] (4/4) Accurately ripped
05 [af8fe356] (4/4) Accurately ripped
06 [c259c489] (4/4) Accurately ripped
07 [e578f2a9] (4/4) Accurately ripped
08 [8bd7f479] (4/4) Accurately ripped
09 [9351b507] (4/4) Accurately ripped
10 [c5d8e60c] (4/4) Accurately ripped
11 [a04556cf] (4/4) Accurately ripped
12 [c3aba4df] (3/3) Accurately ripped
13 [a3e58455] (4/4) Accurately ripped

Track Peak [ CRC32 ] [W/O NULL] [ LOG ]
-- 99,8 [CF97D7A7] [1367C3E1] CRC32
01 99,8 [31A43FD9] [FC58DA3B]
02 99,2 [561D9F6E] [A162B421]
03 99,1 [EC681C6E] [6BE268C5]
04 99,2 [7B685213] [7FB38F2C]
05 99,1 [8124C82E] [77AB65D2]
06 99,1 [3B84D341] [3923E5E9]
07 99,1 [22947883] [5971D5C0]
08 99,1 [3C8BB297] [1126BE0D]
09 42,3 [58A1EFC8] [BEB56767]
10 99,1 [63C235AD] [06540784]
11 99,1 [47CE95CA] [4802FC57]
12 99,2 [8D0FAA44] [4D5D0268]
13 99,1 [1474C297] [9B5A7D73]
--
[CUETools log; Date: 2013.04.22. 11:21:46; Version: 2.1.4]
[CTDB TOCID: bNXV.1yid7G4ZsCCf0Bv1YG8X.E-] found.
Track | CTDB Status
1 | (1/1) Accurately ripped
2 | (1/1) Accurately ripped
3 | (1/1) Accurately ripped
4 | (1/1) Accurately ripped
5 | (1/1) Accurately ripped
6 | (1/1) Accurately ripped
7 | (1/1) Accurately ripped
8 | (1/1) Accurately ripped
9 | (1/1) Accurately ripped
10 | (1/1) Accurately ripped
11 | (1/1) Accurately ripped
12 | (1/1) Accurately ripped
13 | (1/1) Accurately ripped
[AccurateRip ID: 0023b12d-016899a9-c112130d] found.
Track [ CRC | V2 ] Status
01 [5210f92c|9af18f40] (0+0/3) No match
02 [b94501d3|ba81cc4a] (0+0/3) No match
03 [0944e91a|4ab34959] (0+0/3) No match
04 [7d35717f|daafbf28] (0+0/3) No match
05 [df897330|9275149a] (0+0/3) No match
06 [53bd1457|9f30882f] (0+0/3) No match
07 [d08b8475|ae88cb60] (0+0/3) No match
08 [f368c510|523bc675] (0+0/3) No match
09 [89593ddc|8e2fa28b] (0+0/3) No match
10 [b3dbe012|c40521c1] (0+0/3) No match
11 [da77de65|67347645] (0+0/3) No match
12 [52013155|cfacec4e] (0+0/2) No match
13 [1f7ed0be|a110799b] (0+0/3) No match
Offsetted by -12:
01 [168ee52c] (3/3) Accurately ripped
02 [eb7f30fc] (3/3) Accurately ripped
03 [c1461aa4] (3/3) Accurately ripped
04 [a5950184] (3/3) Accurately ripped
05 [bbc58619] (3/3) Accurately ripped
06 [8033acd0] (3/3) Accurately ripped
07 [16023cfe] (3/3) Accurately ripped
08 [54537380] (3/3) Accurately ripped
09 [b2cbae8f] (3/3) Accurately ripped
10 [e332c3cb] (3/3) Accurately ripped
11 [b263c1ea] (3/3) Accurately ripped
12 [3a841f5d] (2/2) Accurately ripped
13 [14a97a1c] (3/3) Accurately ripped

Track Peak [ CRC32 ] [W/O NULL] [ LOG ]
-- 88,4 [6DE8A701] [63D4B9F7] CRC32
01 88,4 [B8514D8A] [0EE81EC4]
02 88,4 [827DD0E9] [5BA96E5A]
03 88,4 [68E4462F] [2805465B]
04 88,3 [5F5A645C] [05A0A523]
05 88,4 [6FC41D36] [0218D8FF]
06 88,4 [D5E0AA76] [C367BFBE]
07 88,4 [58E8332E] [2D8E6D92]
08 88,4 [5364E73B] [D9BD0658]
09 88,3 [5B6D695F] [8732E83A]
10 76,3 [7690E7FE] [894B4D13]
11 88,4 [09464C36] [79B45184]
12 88,4 [E17C3D93] [C96D416C]
13 88,4 [8349E9E4] [F1EC9A56]
-
[CUETools log; Date: 2013.04.22. 11:22:40; Version: 2.1.4]
[CTDB TOCID: IzLXyvOxK05efaPh8e7C8y1MxUQ-] found.
Track | CTDB Status
1 | (2/2) Accurately ripped
2 | (2/2) Accurately ripped
3 | (2/2) Accurately ripped
4 | (2/2) Accurately ripped
5 | (2/2) Accurately ripped
6 | (2/2) Accurately ripped
7 | (2/2) Accurately ripped
8 | (2/2) Accurately ripped
9 | (2/2) Accurately ripped
10 | (2/2) Accurately ripped
11 | (2/2) Accurately ripped
12 | (2/2) Accurately ripped
13 | (2/2) Accurately ripped
14 | (2/2) Accurately ripped
[AccurateRip ID: 00280786-01accee2-b412a90e] found.
Track [ CRC | V2 ] Status
01 [0df7dd78|6ba8e6f8] (0+0/3) No match
02 [5a16a3d5|3f029af5] (0+0/3) No match
03 [b1030948|10267467] (0+0/3) No match
04 [bedb8dfa|e957d61c] (0+0/3) No match
05 [b3061576|7ad70671] (0+0/3) No match
06 [d65e6b38|cc0b7786] (0+0/3) No match
07 [5f001f94|f1fdafa8] (0+0/3) No match
08 [4535eaf6|b5c7df02] (0+0/3) No match
09 [fa943622|46290cf0] (0+0/3) No match
10 [826dae8d|efe048a7] (0+0/3) No match
11 [016f1ae7|0d70aa74] (0+0/3) No match
12 [e0843d19|d1aae73e] (0+0/3) No match
13 [f0ca00d0|f6ece0d5] (0+0/3) No match
14 [5ac55fdf|9bd878cf] (0+0/2) No match
Offsetted by -12:
01 [3bd8747b] (3/3) Accurately ripped
02 [9b4d207d] (3/3) Accurately ripped
03 [244c55dc] (3/3) Accurately ripped
04 [10298fa0] (3/3) Accurately ripped
05 [2acaeffd] (3/3) Accurately ripped
06 [f1aca267] (3/3) Accurately ripped
07 [3f30f6c2] (3/3) Accurately ripped
08 [a51e7b6c] (3/3) Accurately ripped
09 [c5824b1b] (3/3) Accurately ripped
10 [40dcdb3a] (3/3) Accurately ripped
11 [333097f6] (3/3) Accurately ripped
12 [e984a055] (3/3) Accurately ripped
13 [e223e863] (3/3) Accurately ripped
14 [1f396fc8] (2/2) Accurately ripped

Track Peak [ CRC32 ] [W/O NULL] [ LOG ]
-- 88,4 [7301EC45] [BFE6238A] CRC32
01 88,4 [2C8C896F] [FD349591]
02 88,4 [D38F52E4] [CBC16F9C]
03 88,4 [E693A224] [B67FAB55]
04 88,4 [A3413A9F] [A26F8F4A]
05 88,4 [C4ED7CBE] [B7B590E5]
06 88,4 [E73110E6] [1D0E52E8]
07 88,4 [E571DF18] [1C221805]
08 88,4 [C991CBEC] [0FE021D6]
09 88,4 [B3345445] [104D44E9]
10 85,7 [312D7325] [6EC7080D]
11 80,8 [A856CD66] [7CA5D7EE]
12 88,4 [D9002614] [F755C19B]
13 88,4 [D5B6B6AE] [77FBB73A]
14 88,4 [2051EFA1] [7B53EB22]
-
[CUETools log; Date: 2013.04.22. 11:23:16; Version: 2.1.4]
[CTDB TOCID: HSGOFOoTNZ0d8QCQNgXKyAH3Dqw-] found.
Track | CTDB Status
1 | (1/1) Accurately ripped
2 | (1/1) Accurately ripped
3 | (1/1) Accurately ripped
4 | (1/1) Accurately ripped
5 | (1/1) Accurately ripped
6 | (1/1) Accurately ripped
7 | (1/1) Accurately ripped
8 | (1/1) Accurately ripped
9 | (1/1) Accurately ripped
10 | (1/1) Accurately ripped
11 | (1/1) Accurately ripped
[AccurateRip ID: 0017ccdb-00d0a700-a30e8a0b] found.
Track [ CRC | V2 ] Status
01 [13ac7ca7|1686d07e] (0+0/3) No match
02 [4170a0a1|b502266e] (0+0/3) No match
03 [5d055dac|6468d585] (0+0/3) No match
04 [d25d55cc|7f19d5b6] (0+0/3) No match
05 [e033302e|58533c0d] (0+0/3) No match
06 [130c88ee|53b3aa0c] (0+0/3) No match
07 [cbe00126|0e3a766e] (0+0/3) No match
08 [f71ad7c7|2491f5b0] (0+0/3) No match
09 [e37c6920|bfbbbb13] (0+0/3) No match
10 [b08f9892|98196a9d] (0+0/3) No match
11 [841e08c2|9f8d7c76] (0+0/3) No match
Offsetted by -12:
01 [6bc5c24f] (3/3) Accurately ripped
02 [c270f2cd] (3/3) Accurately ripped
03 [25870866] (3/3) Accurately ripped
04 [b9333ae7] (3/3) Accurately ripped
05 [c594107f] (3/3) Accurately ripped
06 [b107a7a3] (3/3) Accurately ripped
07 [b7cd929e] (3/3) Accurately ripped
08 [57506128] (3/3) Accurately ripped
09 [42c6a687] (3/3) Accurately ripped
10 [675e058c] (3/3) Accurately ripped
11 [8e7189b5] (3/3) Accurately ripped

Track Peak [ CRC32 ] [W/O NULL] [ LOG ]
-- 99,2 [6CF0EC05] [2F5B52CA] CRC32
01 99,2 [C8A00DF1] [BBD96614]
02 99,2 [364302C3] [C513F19B]
03 99,2 [39EF796B] [D3A674CD]
04 99,2 [767B2169] [5F447382]
05 99,2 [81E27AEE] [B666959B]
06 98,9 [7B119D65] [568B4577]
07 99,1 [20F8174E] [7B613103]
08 99,1 [832AEA5A] [AC6CB96D]
09 84,5 [23D1E407] [192AB9CF]
10 99,2 [F88C19D6] [31935DEC]
11 99,1 [4A15D1D7] [2BCC7494]



Big thx to ALLexxess, & RevengeEra

ADVERTISING » Free Fast Download! « ADVERTISING


Posted By: SJbuzz Date: 27 Apr 2013 00:55:05
Colossal thanks for a sweet share!!