Loading...

Seventh Void - Heaven Is Gone (2010)

Posted By : Necromandus | Date : 12 Jan 2011 07:19:00 | Comments : 5 |
|



Seventh Void - Heaven Is Gone (2010)
EAC Rip | FLAC, IMG+CUE+LOG | 350 MB | MP3 CBR 320 Kbps | 110 MB | Complete HQ Scans | PNG -> 100 MB
Doom Metal/Stoner | Label: Napalm Records #NPR 358 | RAR 3% Rec. | HotFile & FileServe & FileSonic
... New band from the members of Type O Negative - Kenny Hickey and Johnny Kelly ...

A side project of Type O Negative members Kenny Hickey and Johnny Kelly, Seventh Void were originally conceived in 2003 during the recording of Type O's Life Is Killing Me. Seventh Void eschew the goth influence found in Type O Negative in favor of a dirtier stoner/doom sound, with Southern metal riffage reminiscent of Pantera combined with the slow, plodding heaviness of Crowbar. The result is like a darker, heavier version of Velvet Revolver, with music that pushes just beyond the boundaries of hard rock and into the realm of metal. By 2005, they had solidified a lineup, with Hickey on guitar and vocals, Kelly on drums, Supermassiv guitarist Matt Brown, and Inhuman bassist Hank Hell. With the pieces in place, they began recording, squeezing in time when they could between Type O Negative albums and touring. Four years in the making, their debut full-length, Heaven Is Gone, was finally released in April of 2009 on Big Vin Records, owned by Pantera's Vinnie Paul.

Re-released in 2010 on Napalm Records.

~ by Gregory Heaney, AllMusic.com

Tracklist:

1. Closing In - 3:59
2. Heaven Is Gone - 4:37
3. The End Of All Time - 4:49
4. Broken Sky - 3:14
5. Killing You Slow - 4:59
6. Descent - 4:11
7. Shadow On Me - 4:09
8. Drown Inside - 3:33
9. Death Of A Junkie - 5:42
10. Last Walk In The Light - 3:12

EAC extraction logfile
Exact Audio Copy V1.0 beta 1 from 15. November 2010

EAC extraction logfile from 5. January 2011, 16:57

Seventh Void / Heaven Is Gone

Used drive : SONY DVD RW AW-G170A Adapter: 1 ID: 0

Read mode : Secure
Utilize accurate stream : Yes
Defeat audio cache : Yes
Make use of C2 pointers : No

Read offset correction : 48
Overread into Lead-In and Lead-Out : No
Fill up missing offset samples with silence : Yes
Delete leading and trailing silent blocks : No
Null samples used in CRC calculations : Yes
Used interface : Native Win32 interface for Win NT & 2000

Used output format : Internal WAV Routines
Sample format : 44.100 Hz; 16 Bit; Stereo


TOC of the extracted CD

Track | Start | Length | Start sector | End sector
---------------------------------------------------------
1 | 0:00.00 | 3:59.10 | 0 | 17934
2 | 3:59.10 | 4:37.29 | 17935 | 38738
3 | 8:36.39 | 4:49.20 | 38739 | 60433
4 | 13:25.59 | 3:13.43 | 60434 | 74951
5 | 16:39.27 | 4:58.55 | 74952 | 97356
6 | 21:38.07 | 4:10.59 | 97357 | 116165
7 | 25:48.66 | 4:09.26 | 116166 | 134866
8 | 29:58.17 | 3:32.48 | 134867 | 150814
9 | 33:30.65 | 5:41.65 | 150815 | 176454
10 | 39:12.55 | 3:11.62 | 176455 | 190841


Range status and errors

Selected range

Filename F:\-= lossless work =-\Seventh Void - Heaven Is Gone.wav

Peak level 100.0 %
Extraction speed 0.1 X
Range quality 100.0 %
Test CRC 3819AC1A
Copy CRC 3819AC1A
Copy OK

No errors occurred


AccurateRip summary

Track 1 not present in database
Track 2 not present in database
Track 3 not present in database
Track 4 not present in database
Track 5 not present in database
Track 6 not present in database
Track 7 not present in database
Track 8 not present in database
Track 9 not present in database
Track 10 not present in database

None of the tracks are present in the AccurateRip database

End of status report

==== Log checksum BDEAB7FBCC31761A792735AA554A3872421071D9130BECC0A2B5FFCF8922B448 ====

auCDtect -m0
-----------------------

DON'T MODIFY THIS FILE

-----------------------

PERFORMER: auCDtect Task Manager, ver. 1.5.1RC3 build 1.5.1.4
Copyright (c) 2008-2010 y-soft. All rights reserved
http://y-soft.org

ANALYZER: auCDtect: CD records authenticity detector, version 0.8.2
Copyright (c) 2004 Oleg Berngardt. All rights reserved.
Copyright (c) 2004 Alexander Djourik. All rights reserved.


FILE: Seventh Void - Heaven Is Gone.wav
Size: 448860428 Hash: 692CE98A99D5D6FAFD0A52357C430237 Accuracy: -m0
Conclusion: CDDA 100%
Signature: 93156D8E6D652EE486B9B1D34DD2AD36FE2CD0D7


AccurateRip Report
[Verification date: 05.01.2011 18:03:23]
[Disc ID: 00102702-00812e33-5309f00a]
Disk not present in database.

Track [ CRC32 ] [W/O NULL] [ LOG ]
-- [3819AC1A] [929FD370] CRC32
01 [CDE0BE4E] [63459A7D]
02 [62865691] [14FF2D96]
03 [280DFEE4] [68BD77FD]
04 [3069A1A6] [5436EFED]
05 [85AC8E67] [7A8024B3]
06 [F692F828] [4A128E6C]
07 [CAC7A916] [3F0A7274]
08 [BB5D18BE] [7607BA37]
09 [3E7DE0A3] [325662BA]
10 [90C0A680] [7FCB133F]


• Kenny Hickey - vocals, guitar
• Johnny Kelly - drums
• Matt Brown - guitars
• Hank Hell - bass

Produced by Matt Brown and Kenny Hickey.
Co-produced and mixed by Vinnie Paul and Sterling Winfield.
Recorded and engineered by Matt Brown.
Art direction by Henry Belforand Joseph Hernandez.

Download links for lossless* (flac) + covers + mp3 :
FileSonic.com | FileServe.com | HotFile.com

PASSWORD: www.AvaxHome.ru
Please, do not write these links at any web pages. Enjoy & keep the files alive!

* - EAC Image, standard LOG, embedded cuesheet, Foobar2000 ready
In case you encounter some dead links, please leave the comment here or send me a private message!


---------

ADVERTISING » Free Fast Download! « ADVERTISING


Posted By: holster28 Date: 12 Jan 2011 11:42:45
that's a very good idea with the files. I guess it'll be online much longer. also the lead single "heaven is gone" sounds pretty amazing, but not really like doom or stoner, more like alice in chains' grunge to me. but awesome upload!
Posted By: 1541-II Date: 12 Jan 2011 14:07:44
What is the advantage of PNG format over standard JPEG at highest quality settings? PNG does not solve the problems with lossy process of scanning and takes several times as much space.

Why split music into 100 MB parts, when it could be done in one part - would save time so that noone has to enter the codes to download many times to complete.
Posted By: Necromandus Date: 12 Jan 2011 17:08:46
@1541-II

I don't know :( Your question very disappointed me. Ok, next time I'll rip my CD to mp3 128 with 300*300 pcs F/B scans.
Posted By: holster28 Date: 14 Jan 2011 16:28:54
some people don't get it that the music is free. I don't care if it's on the worst hosters ever like letbit or whatever, it's FREE. just buy it yourself if you don't appreciate the work.
Posted By: robixn Date: 12 Mar 2011 12:33:16
Thank you!