Loading...

Candlemass - Psalms For The Dead (2012)

Posted By : apocalipsys2014 | Date : 10 Jun 2012 07:32:49 | Comments : 3 |
|



Candlemass - Psalms For The Dead (2012)
Year & Label: 2012, Napalm Records | CD#: NPR 427
Flac (image) | MP3 CBR 320 Kbps | Artwork (JPG, 300 dpi) | File-hosts: FilePost
Doom Metal | FLAC: 400 MB | Artwork: 25 MB | MP3: 130 MB | 5% WinRAR Recovery

EAC Secure-rip with LOG+CUE+COVERS | Source: eMule

When you suddenly feel the urge to turn the lights off, light the aged wicks of wax, and turn the speakers to 11…..it is most certainly time for the new Candlemass album to surface. In what is touted as the band’s swan song, Leif Edling casts a spell of irony in composing an album that may do more justice to a Black Sabbath reunion than what is expected from Birmingham this fall. While “Psalms of the Dead” may not rip “Epicus Doomicus Metallicus” or “Nightfall” from the dead cold hands of cult followers, the release is a sonic masterpiece befitting its legacy as the defining band of epic doom metal. If you think you have heard it all before, then listen again.

Much like previous Robert Lowe era releases, “King of the Grey Islands” and “Death Magic Doom,” there are so many elements drawn from the past that combine with modern production to create riffs so somber and sweet it would make Tony Iommi weep. The album wastes no time spewing the molten slabs of doom, as “Prophet” commences with no building intros or foreboding spoken word and engages the listener with obsidian strums from Master Edling and the silky smooth incantations of Mr. Lowe. The addition of macabre organ keys throughout adds a level calamity to the somber laden crunch of songs like “The Sound of Dying Demons” and “Siren Song.”

It is nearly impossible to pick a favorite track, but “Waterwitch” and “The Lights of Thebe” (hereinafter referred to as “Thebe”) are undoubtedly the best on the album and perhaps in the business. The opening part of “Thebe” has the distinct feel of “Dark Are the Veils of Death.” The heights of climax and pure doom euphoria are the deadly plucks at precisely 4:02 of “Thebe” and 2:19 of the album’s title, track which will have fans of the genre bewailing in exaltation. There is a sheer magnitude of memorability on “Dancing in the Temple (of the Mad Queen Bee)” and “The Killing of the Sun” that can only be described as the modern day embodiment of “Fairies Wear Boots.”

If you believe the reports that Candlemass is finally through with studio releases, then the album’s finale “Time As Black” opens with an appropriately intense spoken intro which deserves full repeating as "time is the master of doom": “Time is short. Time is endless. Time is linier, but also a relative factor that moves rather unnoticed from point A to B. Time is a force not to be taken lightly, because time never forgets. Time heals nothing. Time is a black hole that consumes energy, ambition and love. Time is dangerous. Time, quite frankly, doesn’t give a shit. And above all, time is black. It is your enemy. Time is decline and decay. Time is death. It follows you everywhere you go until it inexorably leaves you behind. Time counts your every step, every year, month, week and minute….tick, tock, tick, tock. And when the reaper breathes you in the neck, it is there stealing the very limited precious shares of time that are left. Slowly and almost unnoticed, second by second…tick, tock, tick, tock, tick, tock…it continues the countdown closer to your grave, until it finally stops.”

When all is capitulated in the world of Leif Edling, Candlemass demands to be recognized for the legacy that was forged. It all may have started in the ‘70’s with originators Black Sabbath along with the spawns that took on its many forms: stoner with the likes Trouble, death with the likes of Asphyx, suffocating with likes of The 11th Hour, and gothic with the likes of Draconian, but Candlemass defined what we all know as modern epic doom metal. There will never be another.

www.metalunderground.com

Candlemass Official Site
Candlemass at Metal Archives
Candlemass at MySpace

Musicians:

Vocals : Robert Lowe
Guitars : Lars "Lasse" Johansson
Guitars : Mats "Mappe" Björkman
Bass : Leif Edling
Drums : Jan Lindh

Track List:

01. Prophet [6:06]
02. The Sound Of Dying Demons [5:30]
03. Dancing In The Temple (Of The Mad Queen Bee) [3:38]
04. Waterwitch [7:04]
05. The Lights Of Thebe [5:50]
06. Psalms For The Dead [5:16]
07. The Killing Of The Sun [4:09]
08. Siren Song [5:57]
09. Black As Time [6:47]

EAC extraction logfile
Exact Audio Copy V0.99 prebeta 5 from 4. May 2009

EAC extraction logfile from 8. June 2012, 2:14

Candlemass / Psalms For The Dead

Used drive : ATAPI iHAS624 B Adapter: 2 ID: 0

Read mode : Secure
Utilize accurate stream : Yes
Defeat audio cache : Yes
Make use of C2 pointers : No

Read offset correction : 6
Overread into Lead-In and Lead-Out : No
Fill up missing offset samples with silence : Yes
Delete leading and trailing silent blocks : No
Null samples used in CRC calculations : Yes
Used interface : Installed external ASPI interface

Used output format : User Defined Encoder
Selected bitrate : 40 kBit/s
Quality : High
Add ID3 tag : No
Command line compressor : C:\Program Files\Exact Audio Copy\Flac\flac.exe
Additional command line options : -6 -V %s


TOC of the extracted CD

Track | Start | Length | Start sector | End sector
---------------------------------------------------------
1 | 0:00.00 | 6:05.71 | 0 | 27445
2 | 6:05.71 | 5:30.36 | 27446 | 52231
3 | 11:36.32 | 3:38.24 | 52232 | 68605
4 | 15:14.56 | 7:03.47 | 68606 | 100377
5 | 22:18.28 | 5:49.68 | 100378 | 126620
6 | 28:08.21 | 5:15.50 | 126621 | 150295
7 | 33:23.71 | 4:09.36 | 150296 | 169006
8 | 37:33.32 | 5:57.15 | 169007 | 195796
9 | 43:30.47 | 6:47.28 | 195797 | 226349


Range status and errors

Selected range

Filename D:\Download\Candlemass - Psalms for the Dead.wav

Peak level 98.8 %
Range quality 100.0 %
Copy CRC A542BB01
Copy OK

No errors occurred


AccurateRip summary

Track 1 not present in database
Track 2 not present in database
Track 3 not present in database
Track 4 not present in database
Track 5 not present in database
Track 6 not present in database
Track 7 not present in database
Track 8 not present in database
Track 9 not present in database

None of the tracks are present in the AccurateRip database

End of status report

Not my rip, not my scan-job. Thx very much to the original uploader Ilijan [MMT]!
5% WinRar Recovery Record for all files.
Try before you might buy. Support the artists you like and buy their stuff whenever you can afford it.

FLAC, image + artwork or mp3 at FilePost.com:
FLAC Part 1 | FLAC Part 2 | FLAC Part 3 | FLAC Part 4 | Mp3 320 kbps | Artwork
ADVERTISING » Very Fast Download! « ADVERTISING


Posted By: Conteur Date: 10 Jun 2012 11:12:59
Thank you very much!!!!!!!!!!!!!!

:-))
Posted By: zupammt Date: 15 Jun 2012 18:04:51
Great rip from Ilijan,
thanks!
Posted By: Antipop Date: 17 Mar 2013 20:40:02
Thanks for sharing.