Loading...

Carcass - The Complete Pathologist's Report (2010) (5 CD/DVD Box Set) RESTORED

Posted By : Necromandus | Date : 12 May 2014 16:34:00 | Comments : 5 |
|



Carcass - The Complete Pathologist's Report (2010) (5 CD/DVD Box Set)
EAC Rip | FLAC, IMG+CUE+LOG | DVD | MP3 CBR 320 Kbps | Complete HQ Scans (PNG)
Goregrind/Grindcore, Melodic Death Metal | Label: Earache Records #MOSH1801FB | RAR 3% Rec. | Uploaded.net
... Ultimate Collector Set for all CARCASS fans ...



This Deluxe Edition Re-Issue Box Set features all 5 original CARCASS albums, each with Bonus Tracks or Demo Tracks. Each album also includes an Exclusive DVD featuring parts of the "Pathologist's Report" documentary with interviews, videos & more. All 5 Digipak albums are packaged in an Exclusive Slipcase.




CD1: Reek Of Putrefaction + Flesh Ripping Sonic Torment Demo
EAC Rip | FLAC, IMG+CUE+LOG | 480 MB | MP3 CBR 320 Kbps | 150 MB | Complete HQ Scans | PNG -> 100 MB
DVD -> Folder | NTSC 720x480, 29,97 fps | ~ 30 min | English 2.0 Stereo (LPCM 1536 Kbps) | 2.2 GB
Label: Earache Records Ltd. #MOSH 6001 | RAR 3% Rec. | FilePost

With the ripples of their influence able to felt from all corners of the extreme metal scene, Liverpool, England based metal band Carcass are truly a force to be reckoned with. Formed in 1985, as a Grindcore/Goregrind band, the group from its earnest beginnings worked its way up from hometown heros to world renowned metal heros, all through the use of hard work, intelligence and ingenuity. However, before their ascension to the throne of metal, Carcass played some of the rudest, crudest music known to man, which is displayed flawlessly on their 1988 debut Reek of Putrefaction, a savage and unforgiving slab of brutal Grindcore.

Everything aspect of Reek of Putrefaction is harsh and uncompromising, from the tortured vocals of Jeff Walker(the raspier growl), Bill Steer(guttural growls) and Ken Owens(distorted growls) to the intense blast beat drumming to the cruel guitar savagery that assails the listeners ear drums. Vocally the trio's approach to screaming is utterly sickening (in a good way). While Walker's incredible larynx torturing rasp dominates most of the record, Steer and Owens own brutal delivery often make their way into the mix, making for amazing dynamics between higher pitched, mid ranged and absolutely guttural vocals. A great example of this would be fifth track Carbonized Eye Sockets ( a great name for a song if there ever was one) The drumming on this record (courtesy of Ken Owens) would now be considered fairly straightforward and simple, but in the of 1988 his lightning fast blastbeat technique would inspire thousands of blooming drummers to reach and surpass his sonic record. There are breaks from his fast paced playing however, with these beats often rooted in more groove laden pastures. The beginning of Pyosisified (Rotten To The Gore) shows the more midpaced and slower playing while also demonstrating the impossibly fast speeds at which Mr. Owens was capable of.

The guitar playing (presented by Bill Steer) ranges from fast, tremolo picked guitar, to slower chugging palm muted riffs to slow crawl guitars. On tracks like Fermenting Innards the listener gets to see the contrast between his style of playing dabbling a bit in each setting of speed. Another great dynamic of Steer's playing on this record is it's technicality. Unlike a vast majority of Grindcore bands, who just stick to playing power chords at warp speeds, Steer includes many different cadences, chord changes and solos into his playing. His solos range from Slayer inspired whammy bar fests (Festerday) to alternative picked/legato solos such as in Excreted Alive. The bass on this album is sometimes present as in instrumental Genital Grinder but is mostly unheard more often than not sadly. The lack of bass is no doubt partially attributed to the fact that the production on Reek of Putrefaction is absolutely atrocious. All instruments and vocals (except for the drums which are actually very clear) are horribly muffled as if someone put a pillow over the speakers of the amplifiers. In most cases this type of production would ruin an album, but in Carcass's case the abysmal production works perfectly. For whatever reasons, the muffled instruments and sounds manage to "complete" the sound of Carcass, making whats already intense and raw, even more so. Lyrically, Reek of Putrefaction provides content that would make even hardened veterans Cannibal Corpse gagging. Taking terms and definitions directly from a medical textbook Walker twists and turns the subjects into things of horror, and gore, that would make any voluntary fan who looked at the lyrics sick to the stomach.

While Reek of Putrefaction see's Carcass already at a mature level lyrically and musically, this debut is only the first step in the evolution of this ever changing band. With the help of Reek of Putrefaction and it's abnormally strong content, Carcass as able to evolve their sound even further, with each successive release taking giants strides forward in style and ability. The roots must not be forgotten though, as Reek... most definitely proves to be a debut worth repeated listen.

~ www.metal-archives.com

Tracklist :

1. Genital Grinder - 1:32
2. Regurgitation of Giblets - 1:24
3. Maggot Colony - 1:37
4. Pyosisified (Rotten to the Gore) - 2:55
5. Carbonized Eyesockets - 1:11
6. Frenzied Detruncation - 0:59
7. Vomited Anal Tract - 1:45
8. Festerday - 0:22
9. Fermenting Innards - 2:35
10. Excreted Alive - 1:21
11. Suppuration - 2:19
12. Foeticide - 2:46
13. Microwaved Uterogestation - 1:24
14. Feast On Dismembered Carnage - 1:27
15. Splattered Cavities - 1:54
16. Psychopathologist - 1:18
17. Burnt To a Crisp - 2:43
18. Pungent Excruciation - 2:31
19. Manifestation On Verrucose Urethra - 1:02
20. Oxidised Razor Masticator - 3:12
21. Mucopurulence Excretor - 1:09
22. Malignant Defecation - 2:17
23. Genital Grinder (Intro - Flesh Ripping Sonic Torment Demo) - 1:19
24. Regurgitation of Giblets (Flesh Ripping Sonic Torment Demo) - 1:29
25. Festerday (Flesh Ripping Sonic Torment Demo) - 0:14
26. Limb From Limb (Flesh Ripping Sonic Torment Demo) - 1:01
27. Rotten To The Gore (Flesh Ripping Sonic Torment Demo) - 2:51
28. Excreted Alive (Flesh Ripping Sonic Torment Demo) - 0:56
29. Malignant Defecation (Flesh Ripping Sonic Torment Demo) - 1:54
30. Fermenting Innards (Flesh Ripping Sonic Torment Demo) - 2:31
31. Necro-Cannibal Bloodfeast (Flesh Ripping Sonic Torment Demo) - 1:41
32. Psychopathologist (Flesh Ripping Sonic Torment Demo) - 1:26
33. Die In Pain (Flesh Ripping Sonic Torment Demo) - 0:06
34. Pungent Excruciation (Flesh Ripping Sonic Torment Demo) - 3:01
35. Face Meltaaargh (Flesh Ripping Sonic Torment Demo) - 1:12

EAC extraction logfile
Exact Audio Copy V1.0 beta 3 from 29. August 2011

EAC extraction logfile from 8. April 2012, 18:58

Carcass / Reek Of Putrefaction & Flesh Ripping Sonic Torment Demo

Used drive : PIONEER DVD-RW DVR-219L Adapter: 1 ID: 0

Read mode : Secure
Utilize accurate stream : Yes
Defeat audio cache : Yes
Make use of C2 pointers : No

Read offset correction : 6
Overread into Lead-In and Lead-Out : No
Fill up missing offset samples with silence : Yes
Delete leading and trailing silent blocks : No
Null samples used in CRC calculations : Yes
Used interface : Native Win32 interface for Win NT & 2000

Used output format : Internal WAV Routines
Sample format : 44.100 Hz; 16 Bit; Stereo


TOC of the extracted CD

Track | Start | Length | Start sector | End sector
---------------------------------------------------------
1 | 0:00.00 | 1:32.03 | 0 | 6902
2 | 1:32.03 | 1:24.14 | 6903 | 13216
3 | 2:56.17 | 1:37.33 | 13217 | 20524
4 | 4:33.50 | 2:55.10 | 20525 | 33659
5 | 7:28.60 | 1:11.00 | 33660 | 38984
6 | 8:39.60 | 0:59.23 | 38985 | 43432
7 | 9:39.08 | 1:44.62 | 43433 | 51294
8 | 11:23.70 | 0:22.14 | 51295 | 52958
9 | 11:46.09 | 2:35.12 | 52959 | 64595
10 | 14:21.21 | 1:21.14 | 64596 | 70684
11 | 15:42.35 | 2:19.12 | 70685 | 81121
12 | 18:01.47 | 2:46.13 | 81122 | 93584
13 | 20:47.60 | 1:24.13 | 93585 | 99897
14 | 22:11.73 | 1:27.10 | 99898 | 106432
15 | 23:39.08 | 1:54.11 | 106433 | 114993
16 | 25:33.19 | 1:18.12 | 114994 | 120855
17 | 26:51.31 | 2:43.11 | 120856 | 133091
18 | 29:34.42 | 2:31.17 | 133092 | 144433
19 | 32:05.59 | 1:01.60 | 144434 | 149068
20 | 33:07.44 | 3:12.12 | 149069 | 163480
21 | 36:19.56 | 1:09.36 | 163481 | 168691
22 | 37:29.17 | 2:17.27 | 168692 | 178993
23 | 39:46.44 | 1:18.74 | 178994 | 184917
24 | 41:05.43 | 1:28.41 | 184918 | 191558
25 | 42:34.09 | 0:13.74 | 191559 | 192607
26 | 42:48.08 | 1:00.63 | 192608 | 197170
27 | 43:48.71 | 2:51.02 | 197171 | 209997
28 | 46:39.73 | 0:56.24 | 209998 | 214221
29 | 47:36.22 | 1:54.03 | 214222 | 222774
30 | 49:30.25 | 2:30.53 | 222775 | 234077
31 | 52:01.03 | 1:40.57 | 234078 | 241634
32 | 53:41.60 | 1:26.33 | 241635 | 248117
33 | 55:08.18 | 0:05.54 | 248118 | 248546
34 | 55:13.72 | 3:01.21 | 248547 | 262142
35 | 58:15.18 | 1:12.07 | 262143 | 267549


Range status and errors

Selected range

Filename D:\.www.AvaxHome.ru\Carcass - Reek Of Putrefaction & Flesh Ripping Sonic Torment Demo.wav

Peak level 99.4 %
Extraction speed 7.8 X
Range quality 99.9 %
Test CRC 7C32BA4D
Copy CRC 7C32BA4D
Copy OK

No errors occurred


AccurateRip summary

Track 1 accurately ripped (confidence 3) [5CF062F7] (AR v1)
Track 2 accurately ripped (confidence 3) [D783B4F3] (AR v1)
Track 3 accurately ripped (confidence 3) [9DDC120A] (AR v1)
Track 4 accurately ripped (confidence 3) [0A886F8F] (AR v1)
Track 5 accurately ripped (confidence 3) [B115F933] (AR v1)
Track 6 accurately ripped (confidence 3) [640C48F1] (AR v1)
Track 7 accurately ripped (confidence 3) [0740817F] (AR v1)
Track 8 accurately ripped (confidence 3) [E09AA5BC] (AR v1)
Track 9 accurately ripped (confidence 3) [1B23808E] (AR v1)
Track 10 accurately ripped (confidence 3) [8C5D6BB2] (AR v1)
Track 11 accurately ripped (confidence 3) [9D112730] (AR v1)
Track 12 accurately ripped (confidence 3) [66159165] (AR v1)
Track 13 accurately ripped (confidence 3) [328D41CA] (AR v1)
Track 14 accurately ripped (confidence 3) [64F3D1FE] (AR v1)
Track 15 accurately ripped (confidence 3) [07F9F5DE] (AR v1)
Track 16 accurately ripped (confidence 3) [ED858891] (AR v1)
Track 17 accurately ripped (confidence 3) [82A66E63] (AR v1)
Track 18 accurately ripped (confidence 3) [21C2C555] (AR v1)
Track 19 accurately ripped (confidence 3) [5F803C48] (AR v1)
Track 20 accurately ripped (confidence 3) [AA0144D5] (AR v1)
Track 21 accurately ripped (confidence 3) [C4F86FE1] (AR v1)
Track 22 accurately ripped (confidence 3) [B830269E] (AR v1)
Track 23 accurately ripped (confidence 3) [DE2C4BCB] (AR v1)
Track 24 accurately ripped (confidence 3) [84CFA2EB] (AR v1)
Track 25 accurately ripped (confidence 3) [A7D9A1DE] (AR v1)
Track 26 accurately ripped (confidence 3) [5EBD5DD0] (AR v1)
Track 27 accurately ripped (confidence 3) [BE1C810C] (AR v1)
Track 28 accurately ripped (confidence 3) [365C48C5] (AR v1)
Track 29 accurately ripped (confidence 3) [0C75D339] (AR v1)
Track 30 accurately ripped (confidence 3) [41E1B664] (AR v1)
Track 31 accurately ripped (confidence 3) [EB5B64E5] (AR v1)
Track 32 accurately ripped (confidence 3) [4C9D9CC1] (AR v1)
Track 33 not present in database
Track 34 accurately ripped (confidence 3) [60BAB314] (AR v1)
Track 35 accurately ripped (confidence 3) [6A2195D3] (AR v1)

34 track(s) accurately ripped
1 track(s) not present in the AccurateRip database

Some tracks could not be verified as accurate

End of status report

---- CUETools DB Plugin V2.1.3

[CTDB TOCID: xNfT_ZOpcB9foVIyLQV5KUFNHv4-] found, Submit result: xNfT_ZOpcB9foVIyLQV5KUFNHv4- has been confirmed
[6cdb2860] (1/1) Accurately ripped


==== Log checksum C17D4E37426E0F7DA7717FF8E21F5F0CDEC95F475CC9711D3A1786B160C669FC ====

auCDtect + Dynamic Range
-----------------------

DON'T MODIFY THIS FILE

-----------------------

PERFORMER: auCDtect Task Manager, ver. 1.5.1RC3 build 1.5.1.4
Copyright (c) 2008-2010 y-soft. All rights reserved
http://y-soft.org

ANALYZER: auCDtect: CD records authenticity detector, version 0.8.2
Copyright (c) 2004 Oleg Berngardt. All rights reserved.
Copyright (c) 2004 Alexander Djourik. All rights reserved.


FILE: Carcass - Reek Of Putrefaction & Flesh Ripping Sonic Torment Demo.wav
Size: 629277644 Hash: 44FD99289463920553A2B6E9F26F3837 Accuracy: -m0
Conclusion: CDDA 100%
Signature: 202BFD707CEEC7625EE94C3D73C7F0614202B5C2

================================================================================

foobar2000 1.1.3 / Dynamic Range Meter 1.1.0
log date: 2012-04-10 18:34:32

--------------------------------------------------------------------------------
Analyzed: Carcass / Reek Of Putrefaction & Flesh Ripping Sonic Torment Demo
--------------------------------------------------------------------------------

DR Peak RMS Duration Track
--------------------------------------------------------------------------------
DR7 -0.06 dB -8.97 dB 1:32 01-Genital Grinder
DR7 -0.08 dB -8.20 dB 1:24 02-Regurgitation of Giblets
DR6 -0.05 dB -7.18 dB 1:37 03-Maggot Colony
DR7 -0.05 dB -7.81 dB 2:55 04-Pyosisified (Rotten to the Gore)
DR7 -0.05 dB -7.86 dB 1:11 05-Carbonized Eyesockets
DR6 -0.05 dB -7.14 dB 0:59 06-Frenzied Detruncation
DR8 -0.06 dB -9.11 dB 1:45 07-Vomited Anal Tract
DR7 -0.06 dB -8.19 dB 0:22 08-Festerday
DR6 -0.05 dB -7.53 dB 2:35 09-Fermenting Innards
DR6 -0.05 dB -6.68 dB 1:21 10-Excreted Alive
DR6 -0.05 dB -6.60 dB 2:19 11-Suppuration
DR7 -0.05 dB -7.70 dB 2:46 12-Foeticide
DR7 -0.39 dB -8.32 dB 1:24 13-Microwaved Uterogestation
DR7 -0.21 dB -8.55 dB 1:27 14-Feast On Dismembered Carnage
DR7 -0.05 dB -7.59 dB 1:54 15-Splattered Cavities
DR7 -0.05 dB -7.73 dB 1:18 16-Psychopathologist
DR7 -0.05 dB -8.48 dB 2:43 17-Burnt To a Crisp
DR8 -0.05 dB -8.66 dB 2:31 18-Pungent Excruciation
DR7 -0.05 dB -7.94 dB 1:02 19-Manifestation On Verrucose Urethra
DR7 -0.05 dB -7.86 dB 3:12 20-Oxidised Razor Masticator
DR7 -0.06 dB -8.90 dB 1:09 21-Mucopurulence Excretor
DR5 -0.98 dB -7.71 dB 2:17 22-Malignant Defecation
DR9 -0.05 dB -10.24 dB 1:19 23-Genital Grinder (Intro - Flesh Ripping Sonic Torment Demo)
DR8 -0.05 dB -9.71 dB 1:29 24-Regurgitation of Giblets (Flesh Ripping Sonic Torment Demo)
DR7 -0.05 dB -9.57 dB 0:14 25-Festerday (Flesh Ripping Sonic Torment Demo)
DR7 -0.05 dB -8.99 dB 1:01 26-Limb From Limb (Flesh Ripping Sonic Torment Demo)
DR8 -0.05 dB -8.83 dB 2:51 27-Rotten To The Gore (Flesh Ripping Sonic Torment Demo)
DR8 -0.06 dB -10.05 dB 0:56 28-Excreted Alive (Flesh Ripping Sonic Torment Demo)
DR8 -0.06 dB -10.31 dB 1:54 29-Malignant Defecation (Flesh Ripping Sonic Torment Demo)
DR8 -0.05 dB -9.91 dB 2:31 30-Fermenting Innards (Flesh Ripping Sonic Torment Demo)
DR8 -0.05 dB -9.66 dB 1:41 31-Necro-Cannibal Bloodfeast (Flesh Ripping Sonic Torment Demo)
DR8 -0.05 dB -8.82 dB 1:26 32-Psychopathologist (Flesh Ripping Sonic Torment Demo)
DR17 -0.23 dB -16.90 dB 0:06 33-Die In Pain (Flesh Ripping Sonic Torment Demo)
DR9 -0.05 dB -10.30 dB 3:01 34-Pungent Excruciation (Flesh Ripping Sonic Torment Demo)
DR7 -0.05 dB -9.14 dB 1:12 35-Face Meltaaargh (Flesh Ripping Sonic Torment Demo)
--------------------------------------------------------------------------------

Number of tracks: 35
Official DR value: DR7

Samplerate: 44100 Hz
Channels: 2
Bits per sample: 16
Bitrate: 1411 kbps
Codec: PCM
================================================================================


DVD1: The Complete Pathologist's Report Part I - Incubation

1. A Meeting Of Minds
2. Rehearsals Begind
3. The Original Line Up
4. What Inspired Gore?
5. Police Raids Over Artwork
6. The First Album
7. How Were Carcass Different?
8. Bill's Involvement With Napalm
9. Grindcore? Hardcore? Death Metal? Punk?
10. John Peel's Support

• Jeff Walker - Vocals, Bass
• Bill Steer - Guitars, Vocals
• Ken Owen - Drums, Vocals




CD2: Symphonies of Sickness + Symphonies of Sickness Demo
EAC Rip | FLAC, IMG+CUE+LOG | 550 MB | MP3 CBR 320 Kbps | 160 MB | Complete HQ Scans | PNG -> 80 MB
DVD -> Folder | NTSC 720x480, 29,97 fps | ~ 30 min | English 2.0 Stereo (LPCM 1536 Kbps) | 2.1 GB
Label: Earache Records Ltd. #MOSH 1801 | RAR 3% Rec. | FilePost

Carcass did something revolutionary back in 1989 when they released “Symphonies of Sickness”. What did they do that was so revolutionary? Oh nothing really, except create the genre known only as goregrind. This album basically set the foundation for every other band that attempts goregrind. If you can find a goregrind band that doesn’t name Carcass as their influence, they’re lying. Simple as that, this is and will always be the greatest goregrind album ever.

The production is a massive step up from their previous album. “Reek of Putrefaction” was by far one of the worst productions I’ve ever heard. “Symphonies of Sickness” just happens to be the exact opposite and is very well produced. The guitars are extremely heavy, just listen to “Ruptured in Purulence”; the bass is loud and backs up the guitar nicely but also has some stand outs, “Ruptured” and “Empathological Necroticism”. The drums are loud but the snare can get lost sometimes in the blast beats but not that big of a deal.

The riffs on this album are very technical compared to their debut. “Excoriating Abdominal Emanation” is a great example of these riffs being all over the place. “Ruptured in Purulence” has one of the heaviest riffs ever played in the intro and then explodes into the grind madness that Carcass is so good at. “Crepitating Bowel Erosion” also has an amazingly heavy intro. 2 of the songs on here seem more straight grindcore to me. “Cadaveric Incubator of Endo Parasites” and “Slash Dementia” are both extremely fast. They start with blast beats and continue through most of the song, so if you’re worried about a shortage of blast beats and grind, don’t worry about it.

Now the vocals. The trio of Bill Steer, Jeff Walker, and Ken Owen has got to be the greatest combination of vocals in the history of metal. Bill Steer and his extreme gutturals, Ken doing his pitch shifted sections perfectly, and Jeff Walker doing his high raspy screams and his vomit sounding vocals all work perfectly together. Jeff especially shines during the mid section of “Excoriating Abdominal Emanation” and the insane vocals on “Ruptured in Purulence”. There are plenty of random Jeff Walker noises that linger in the background that sound like he might be sick. All of this just adds to feel of the album that created goregrind.

The lyrics are the most disgusting lyrics ever. They are not like Cannibal Corpse gore lyrics because most of those are fantasy based. These are pathologic gore lyrics that can actually exist. Obviously, most morticians don’t go grave robbing and start eating rotting corpses but you get my drift. “Cadaveric Incubator of Endo Parasites” is about a corpse literally being eaten away by insects. I almost threw up the first time I read them. It is just flat out gross. “Embryonic Necropsy and Devourment” might be the most horrible song on here. Boiling fetuses to make a soup, who doesn’t like the sound of that?

In closing, this is the almighty goregrind album and might just be my favorite album of all time. Everything about this album is amazing. If you like “Heartwork” or “Swansong” you might have a hard time trying to stomach this rotting piece of grind, but if you’re willing to try it, I would recommend it. It is and will always be one word, amazing.

~ www.metal-archives.com

Tracklist :

1. Reek Of Putrefaction - 4:10
2. Exhume To Consume - 3:51
3. Excoriating Abdominal Emanation - 4:32
4. Ruptured In Purulence - 4:11
5. Empathological Necroticism - 5:45
6. Embryonic Necropsy And Devourment - 5:13
7. Swarming Vulgar Mass Of Infected Virulency - 3:10
8. Cadaveric Incubator Of Endoparasites - 3:24
9. Slash Dementia - 3:23
10. Crepitating Bowel Erosion - 5:29
11. Reek Of Putrefaction (Demo) - 3:42
12. Slash Dementia (Demo) - 3:12
13. Embryonic Necropsy And Devourment (Demo) - 4:52
14. Cadaveric Incubator Of Endo-Parasites (Demo) - 3:19
15. Ruptured In Purulence (Demo) - 3:48
16. Crepitating Bowel Erosion (Demo) - 5:15

EAC extraction logfile
Exact Audio Copy V1.0 beta 3 from 29. August 2011

EAC extraction logfile from 8. April 2012, 20:19

Carcass / Symphonies Of Sickness

Used drive : PIONEER DVD-RW DVR-219L Adapter: 1 ID: 0

Read mode : Secure
Utilize accurate stream : Yes
Defeat audio cache : Yes
Make use of C2 pointers : No

Read offset correction : 6
Overread into Lead-In and Lead-Out : No
Fill up missing offset samples with silence : Yes
Delete leading and trailing silent blocks : No
Null samples used in CRC calculations : Yes
Used interface : Native Win32 interface for Win NT & 2000

Used output format : Internal WAV Routines
Sample format : 44.100 Hz; 16 Bit; Stereo


TOC of the extracted CD

Track | Start | Length | Start sector | End sector
---------------------------------------------------------
1 | 0:00.00 | 4:10.05 | 0 | 18754
2 | 4:10.05 | 3:50.42 | 18755 | 36046
3 | 8:00.47 | 4:31.46 | 36047 | 56417
4 | 12:32.18 | 4:11.04 | 56418 | 75246
5 | 16:43.22 | 5:44.73 | 75247 | 101119
6 | 22:28.20 | 5:13.34 | 101120 | 124628
7 | 27:41.54 | 3:10.29 | 124629 | 138907
8 | 30:52.08 | 3:23.49 | 138908 | 154181
9 | 34:15.57 | 3:22.68 | 154182 | 169399
10 | 37:38.50 | 5:29.33 | 169400 | 194107
11 | 43:08.08 | 3:42.20 | 194108 | 210777
12 | 46:50.28 | 3:11.38 | 210778 | 225140
13 | 50:01.66 | 4:51.60 | 225141 | 247025
14 | 54:53.51 | 3:19.23 | 247026 | 261973
15 | 58:12.74 | 3:48.37 | 261974 | 279110
16 | 62:01.36 | 5:15.16 | 279111 | 302751


Range status and errors

Selected range

Filename D:\.www.AvaxHome.ru\Carcass - Symphonies Of Sickness.wav

Peak level 99.4 %
Extraction speed 1.9 X
Range quality 100.0 %
Test CRC F773BC09
Copy CRC F773BC09
Copy OK

No errors occurred


AccurateRip summary

Track 1 cannot be verified as accurate (confidence 9) [14A147AD], AccurateRip returned [86236CC2] (AR v2)
Track 2 cannot be verified as accurate (confidence 9) [3C3CC73B], AccurateRip returned [DE506053] (AR v2)
Track 3 cannot be verified as accurate (confidence 9) [B2E5D831], AccurateRip returned [D3F6DE37] (AR v2)
Track 4 cannot be verified as accurate (confidence 9) [33A2845A], AccurateRip returned [EA325A36] (AR v2)
Track 5 cannot be verified as accurate (confidence 9) [D386D6F5], AccurateRip returned [DF8C8E90] (AR v2)
Track 6 cannot be verified as accurate (confidence 9) [AA5B19B3], AccurateRip returned [D900AD52] (AR v2)
Track 7 cannot be verified as accurate (confidence 9) [C7C2882F], AccurateRip returned [1C27BAF9] (AR v2)
Track 8 cannot be verified as accurate (confidence 9) [21CF298C], AccurateRip returned [D6AA7A84] (AR v2)
Track 9 cannot be verified as accurate (confidence 9) [CCD2AB7D], AccurateRip returned [DB888B6E] (AR v2)
Track 10 cannot be verified as accurate (confidence 9) [74603278], AccurateRip returned [490F9928] (AR v2)
Track 11 cannot be verified as accurate (confidence 7) [15799E21], AccurateRip returned [2ABB9CF4] (AR v2)
Track 12 cannot be verified as accurate (confidence 7) [4BB4A443], AccurateRip returned [145DD1A6] (AR v2)
Track 13 cannot be verified as accurate (confidence 7) [CFB6A8B7], AccurateRip returned [FDC896DA] (AR v2)
Track 14 cannot be verified as accurate (confidence 7) [8A58A094], AccurateRip returned [BEAEDF46] (AR v2)
Track 15 cannot be verified as accurate (confidence 6) [D9667C0D], AccurateRip returned [05161D50] (AR v2)
Track 16 cannot be verified as accurate (confidence 7) [7C5461E2], AccurateRip returned [90FD25D7] (AR v2)

No tracks could be verified as accurate
You may have a different pressing from the one(s) in the database

End of status report

---- CUETools DB Plugin V2.1.3

[CTDB TOCID: BRpiBUPiPAQsKQh4Nu7U5rihXMk-] found, Submit result: BRpiBUPiPAQsKQh4Nu7U5rihXMk- has been confirmed
[184b9b89] (2/2) Accurately ripped


==== Log checksum D526C83E376B6A8B7BD96EBDB52B561602C81651EB77D9A1EF2909E50EB51118 ====

auCDtect + Dynamic Range
-----------------------

DON'T MODIFY THIS FILE

-----------------------

PERFORMER: auCDtect Task Manager, ver. 1.5.1RC3 build 1.5.1.4
Copyright (c) 2008-2010 y-soft. All rights reserved
http://y-soft.org

ANALYZER: auCDtect: CD records authenticity detector, version 0.8.2
Copyright (c) 2004 Oleg Berngardt. All rights reserved.
Copyright (c) 2004 Alexander Djourik. All rights reserved.


FILE: Carcass - Symphonies Of Sickness.wav
Size: 712072748 Hash: F3834F798C1A765B02949CE791FDDCC8 Accuracy: -m0
Conclusion: CDDA 100%
Signature: 64DE4EB1E8839D3F49CF8294DE2DD79237E1CA43

================================================================================

foobar2000 1.1.3 / Dynamic Range Meter 1.1.0
log date: 2012-04-10 18:34:12

--------------------------------------------------------------------------------
Analyzed: Carcass / Symphonies Of Sickness
--------------------------------------------------------------------------------

DR Peak RMS Duration Track
--------------------------------------------------------------------------------
DR6 -0.05 dB -6.91 dB 4:10 01-Reek Of Putrefaction
DR6 -0.05 dB -7.29 dB 3:51 02-Exhume To Consume
DR6 -0.05 dB -6.98 dB 4:32 03-Excoriating Abdominal Emanation
DR6 -0.05 dB -7.60 dB 4:11 04-Ruptured In Purulence
DR7 -0.05 dB -7.70 dB 5:45 05-Empathological Necroticism
DR7 -0.05 dB -7.44 dB 5:13 06-Embryonic Necropsy And Devourment
DR7 -0.05 dB -7.30 dB 3:10 07-Swarming Vulgar Mass Of Infected Virulency
DR7 -0.05 dB -7.35 dB 3:24 08-Cadaveric Incubator Of Endoparasites
DR7 -0.05 dB -7.46 dB 3:23 09-Slash Dementia
DR7 -0.05 dB -7.61 dB 5:29 10-Crepitating Bowel Erosion
DR4 -0.05 dB -5.27 dB 3:42 11-Reek Of Putrefaction (Demo)
DR4 -0.05 dB -4.97 dB 3:12 12-Slash Dementia (Demo)
DR5 -0.05 dB -6.44 dB 4:52 13-Embryonic Necropsy And Devourment (Demo)
DR4 -0.05 dB -4.98 dB 3:19 14-Cadaveric Incubator Of Endo-Parasites (Demo)
DR4 -0.05 dB -5.58 dB 3:48 15-Ruptured In Purulence (Demo)
DR4 -0.05 dB -5.12 dB 5:15 16-Crepitating Bowel Erosion (Demo)
--------------------------------------------------------------------------------

Number of tracks: 16
Official DR value: DR6

Samplerate: 44100 Hz
Channels: 2
Bits per sample: 16
Bitrate: 1411 kbps
Codec: PCM
================================================================================

DVD2: The Complete Pathologist's Report Part II - Propagation

1. Mike Joins Carcass
2. Crazy Times
3. Making It To The States
4. Naturals With The Ladies
5. Big In The USA
6. Creating Symphonies
7. The Writing Process
8. A View From 1992
9. Slash Dementia

• Jeff Walker - Vocals, Bass
• Bill Steer - Guitars, Vocals
• Ken Owen - Drums, Vocals





CD3: Necroticism - Descanting The Insalubrious
EAC Rip | FLAC, IMG+CUE+LOG | 520 MB | MP3 CBR 320 Kbps | 150 MB | Complete HQ Scans | PNG -> 75 MB
DVD -> Folder | NTSC 720x480, 29,97 fps | ~ 55 min | English 2.0 Stereo (LPCM 1536 Kbps) | 4.0 GB
Label: Earache Records Ltd. #MOSH 4202 | RAR 3% Rec. | FilePost

Carcass: sweet Satan below what can be said that hasn’t already been said about Carcass? Holding an unassailable position as the kings of deathly grind, this is a group that has both redefined and exemplified the music with a sickly cloud of rot and odorous decay hanging about it. Certainly, they are one of the few who deserve the endless bloody rain of praise poured down upon – their influence on the modern melodic death scene and the murky confines of the grindcore underworld is utterly irrefutable.
And while there are some who argue that the UK legend’s crowning glory is the vomit inducing goregrind of ‘Symphonies of Sickness’, and others who hold the melodic metal milestone ‘Heartwork’ in highest regard, there are those who understand the truth. That here, on the legendary ‘Necroticism - Descanting The Insalubrious’ (the bridge album between the two aforementioned discs), Carcass laid down the greatest, heaviest work of their pathology-obsessed career.

The songs here are enormously different from those you’ll find on ‘Reek of Putrefaction’ or ‘Symphonies’, with their run times nearly doubled or in the case of songs such as ‘Inpropagation’ and ‘Forensic Clinicism/The Sanguine Article’ pretty much tripled in length. The death metal influence hinted at on ‘Symphonies’ takes to the fore here, with song structures slowed down and sped up where appropriate in place of the relentlessly blasting of the two preceding albums. Solos feature prominently (a rarity in most forms of death metal), and an unmistakeable hint of melody shines through each one, though nowhere near that seen on ‘Heartwork.’ Lyrically, gore fans will still be satiated. While the over-the-top titles are absent, in their place is a far more surgically precise kind of description, equally graphic in their gruesome detailing of decomposing, decaying human bodies.

‘Necroticism’ is also an album characterized by a very genuine atmosphere of ominous dread and barely contained bloodlust. This is helped in large part by the sound itself: herein the listener can find one of the finest, heaviest production jobs that Colin Richardson has ever put his stamp on, with each instrument ringing out as clearly as the one alongside, all the while retaining one of the meatiest and most satisfyingly crunching guitar tones ever heard on record. The additional interview samples opening almost every song are the cherry on the cake of the production.

As players, Carcass were on the very pinnacle of their game here. Jeff Walker and Bill Steer’s infamous and highly influential vocals come into their own, coupling Walker’s hellish, primal scream with Steer’s sinister low-end growls to produce a fantastically unsettling effect. Ken Owen gives one of his best performances ever, adding a variety and flair into his drumwork (though his forays into hyperspeed are not completely absent), and his fills are as stunning in their power as they are in skill. And of course, it would be impossible to talk about ‘Necroticism’ without mention of the awe-inspiring guitars of Steer and Michael Amott, who bring grinding, writhing, coruscating riff after riff to the table, along with lead guitar work and solos that are some of the most memorably astounding in all of death metal.

Inarguably, the songs here are laden to the brim with hooks; the very riffs themselves are the kind that will stick in the brain for weeks – the main riff for ‘Incarnated Solvent Abuse’ is one of the greatest riffs of all time – and the subtle groove underscoring the likes of ‘Pedigree Butchery’ and ‘Carneous Cacoffiny’ are guaranteed to set heads banging as hard as any pounding deathly blasting ever could.

All of these elements combine to make one utterly sublime masterclass in death metal artistry, one of the true, inarguable classics of immense significance and historical importance in heavy metal. Truly the greatest Carcass album of all time, and one of the best albums you will ever hear in your entire life. Seek it out now, and revel in the festering slime of ‘Necroticism - Descanting the Insalubrious.’

~ www.metal-archives.com

Tracklist :

01. Inpropagation - 7:06
02. Corporal Jigsore Quandary - 5:48
03. Symposium Of Sickness - 6:57
04. Pedigree Butchery - 5:16
05. Incarnated Solvent Abuse - 5:00
06. Carneous Cacoffiny - 6:44
07. Lavaging Expectorate Of Lysergide Composition - 4:03
08. Forensic Clinicism / The Sanguine Article - 7:11
09. Tools Of The Trade (Bonus Track) - 3:05
10. Pyosified (Still Rotten To The Gore) (Bonus Track) - 3:08
11. Hepatic Tissue Fermentation II (Bonus Track) - 6:38

EAC extraction logfile
Exact Audio Copy V1.0 beta 3 from 29. August 2011

EAC extraction logfile from 8. April 2012, 20:39

Carcass / Necroticism - Descanting The Insalubrious

Used drive : PIONEER DVD-RW DVR-219L Adapter: 1 ID: 0

Read mode : Secure
Utilize accurate stream : Yes
Defeat audio cache : Yes
Make use of C2 pointers : No

Read offset correction : 6
Overread into Lead-In and Lead-Out : No
Fill up missing offset samples with silence : Yes
Delete leading and trailing silent blocks : No
Null samples used in CRC calculations : Yes
Used interface : Native Win32 interface for Win NT & 2000

Used output format : Internal WAV Routines
Sample format : 44.100 Hz; 16 Bit; Stereo


TOC of the extracted CD

Track | Start | Length | Start sector | End sector
---------------------------------------------------------
1 | 0:00.00 | 7:06.20 | 0 | 31969
2 | 7:06.20 | 5:48.08 | 31970 | 58077
3 | 12:54.28 | 6:56.54 | 58078 | 89331
4 | 19:51.07 | 5:16.25 | 89332 | 113056
5 | 25:07.32 | 4:59.67 | 113057 | 135548
6 | 30:07.24 | 6:43.42 | 135549 | 165815
7 | 36:50.66 | 4:03.26 | 165816 | 184066
8 | 40:54.17 | 7:11.16 | 184067 | 216407
9 | 48:05.33 | 3:05.18 | 216408 | 230300
10 | 51:10.51 | 3:08.24 | 230301 | 244424
11 | 54:19.00 | 6:38.36 | 244425 | 274310


Range status and errors

Selected range

Filename D:\.www.AvaxHome.ru\Carcass - Necroticism - Descanting The Insalubrious.wav

Peak level 99.0 %
Extraction speed 7.9 X
Range quality 100.0 %
Test CRC F9779C11
Copy CRC F9779C11
Copy OK

No errors occurred


AccurateRip summary

Track 1 accurately ripped (confidence 4) [B6767CDD] (AR v1)
Track 2 accurately ripped (confidence 4) [1031ED09] (AR v1)
Track 3 accurately ripped (confidence 4) [DEB9065F] (AR v1)
Track 4 accurately ripped (confidence 4) [FEC0CE7B] (AR v1)
Track 5 accurately ripped (confidence 4) [7AEB5308] (AR v1)
Track 6 accurately ripped (confidence 4) [25301701] (AR v1)
Track 7 accurately ripped (confidence 4) [6B45FE85] (AR v1)
Track 8 accurately ripped (confidence 4) [40D260F5] (AR v1)
Track 9 accurately ripped (confidence 4) [1ACD48DD] (AR v1)
Track 10 accurately ripped (confidence 4) [0F824CD2] (AR v1)
Track 11 accurately ripped (confidence 4) [2DCDD733] (AR v1)

All tracks accurately ripped

End of status report

---- CUETools DB Plugin V2.1.3

[CTDB TOCID: ktH3znnlbOto319KjD3.1pzwiTk-] found, Submit result: ktH3znnlbOto319KjD3.1pzwiTk- has been confirmed
[eed8d5c4] (21/21) Accurately ripped


==== Log checksum 680255C339C15CFC36AE023E12E15F327164EE1AFB2E50FA2C609A1C3D24C7C8 ====

auCDtect + Dynamic Range
-----------------------

DON'T MODIFY THIS FILE

-----------------------

PERFORMER: auCDtect Task Manager, ver. 1.5.1RC3 build 1.5.1.4
Copyright (c) 2008-2010 y-soft. All rights reserved
http://y-soft.org

ANALYZER: auCDtect: CD records authenticity detector, version 0.8.2
Copyright (c) 2004 Oleg Berngardt. All rights reserved.
Copyright (c) 2004 Alexander Djourik. All rights reserved.


FILE: Carcass - Necroticism - Descanting The Insalubrious.wav
Size: 645179516 Hash: 02BA6C9B442B3F6BBEAED726A221B689 Accuracy: -m0
Conclusion: CDDA 100%
Signature: A256BD1FB99CE6D950BA4FC77594C84513118D62

================================================================================

foobar2000 1.1.3 / Dynamic Range Meter 1.1.0
log date: 2012-04-10 18:33:40

--------------------------------------------------------------------------------
Analyzed: Carcass / Necroticism - Descanting The Insalubrious
--------------------------------------------------------------------------------

DR Peak RMS Duration Track
--------------------------------------------------------------------------------
DR6 -0.08 dB -6.82 dB 7:06 01-Inpropagation
DR6 -0.08 dB -7.01 dB 5:48 02-Corporal Jigsore Quandary
DR6 -0.08 dB -6.88 dB 6:57 03-Symposium Of Sickness
DR6 -0.08 dB -7.20 dB 5:16 04-Pedigree Butchery
DR6 -0.08 dB -6.84 dB 5:00 05-Incarnated Solvent Abuse
DR6 -0.08 dB -6.67 dB 6:44 06-Carneous Cacoffiny
DR6 -0.08 dB -7.10 dB 4:03 07-Lavaging Expectorate Of Lysergide Composition
DR6 -0.08 dB -6.86 dB 7:11 08-Forensic Clinicism / The Sanguine Article
DR5 -0.10 dB -6.51 dB 3:05 09-Tools Of The Trade (Bonus Track)
DR6 -0.10 dB -6.61 dB 3:08 10-Pyosified (Still Rotten To The Gore) (Bonus Track)
DR6 -0.10 dB -7.58 dB 6:38 11-Hepatic Tissue Fermentation II (Bonus Track)
--------------------------------------------------------------------------------

Number of tracks: 11
Official DR value: DR6

Samplerate: 44100 Hz
Channels: 2
Bits per sample: 16
Bitrate: 1411 kbps
Codec: PCM
================================================================================

DVD3: The Complete Pathologist's Report Part III - Mass Infection

1. Inpropagation
2. Corporal Jigsore Quandary
3. Symposium of Sickness
4. Pedigree Butchery
5. Incarnated Solvent Abuse
6. Carneous Cacoffiny
7. Lavaging Expectorate of Lysergide Composition
8. Forensic Clinicism / The Sanguine Article
9. Tools of the Trade
10. Pyosified (Still Rotten to the Gore)
11. Hepatic Tissue Fermentation II

• Jeff Walker - Vocals, Bass
• Michael Amott - Guitars, Vocals
• Bill Steer - Guitars, Vocals
• Ken Owen - Drums, Vocals






CD4: Heartwork + The Pre-Heartwork Parr Street Demos February 1993
EAC Rip | FLAC, IMG+CUE+LOG | 370+380 MB | MP3 CBR 320 Kbps | 100+110 MB | Complete HQ Scans | PNG -> 80 MB
DVD -> Folder | NTSC 720x480, 29,97 fps | ~ 33 min | English 2.0 Stereo (LPCM 1536 Kbps) | 2.5 GB
Label: Earache Records Ltd. #MOSH9702 | RAR 3% Rec. | FilePost

This album in my opinion is the greatest death metal album ever made. Carcass - Heartwork is beyond heavy and also ultra melodic in places. Firstly I will point out that this album is almost nothing like any off Carcass's releases up to this point in their career. This is when Carcass progressed into the band they had been striving to become. First off the music differs vastly from the previous release Necroticism : Descanting the Insalubrious moving from a more straight up death metal sound with long progressive song structures to more clinically played, straight to the point song's. Focusing more on the quality of the riffs and more memorable song's. For example on the mighty title track that verse riff is possibly one of the heaviest riffs ever wrote in metal, instantly recognisable and memorable.

Handling guitars on Heartwork we have Bill Steer and Micheal Amott (Arch Enemy, Carnage) unleashing forth riffs that will leave you begging for mercy and melodic, extremely well played leads that are totally unique and fresh compared to other death metal, first lead on the song Carnal Forge is totally unique heard that in any death metal before this album? Another personal highlight would have to be Doctrinal Expletives every riff in that song just blasts out of your speakers and demands you head bang.

It also has to be mentioned that Colin Richardson did an superb job producing this album with the band. Making the guitar tone, drum sound and every thing else on the album sound crisp and sharp you can also clearly hear everything on this album rare for bands that play with such low tunings in the time period. Overall its hard for me to review this album it is something every metal fan should own in their collection if not just for how important it is in the developmental of melodic death metal, I cant truly express in words how amazing Heartwork is I listen to it about a 100 times a year and it never becomes stale or boring in just gets more intense after each play. Easily one of my all time favourite records, now go out and buy it and see if it becomes one of yours.

~ www.metal-archives.com

Tracklist :

1. Buried Dreams - 3:59
2. Carnal Forge - 3:55
3. No Love Lost - 3:23
4. Heartwork - 4:33
5. Embodiment - 5:37
6. This Mortal Coil - 3:50
7. Arbeit Macht Fleisch - 4:22
8. Blind Bleeding The Blind - 4:57
9. Doctrinal Expletives - 3:39
10. Death Certificate - 3:37

EAC extraction logfile
Exact Audio Copy V1.0 beta 3 from 29. August 2011

EAC extraction logfile from 8. April 2012, 20:52

Carcass / Heartwork

Used drive : PIONEER DVD-RW DVR-219L Adapter: 1 ID: 0

Read mode : Secure
Utilize accurate stream : Yes
Defeat audio cache : Yes
Make use of C2 pointers : No

Read offset correction : 6
Overread into Lead-In and Lead-Out : No
Fill up missing offset samples with silence : Yes
Delete leading and trailing silent blocks : No
Null samples used in CRC calculations : Yes
Used interface : Native Win32 interface for Win NT & 2000

Used output format : Internal WAV Routines
Sample format : 44.100 Hz; 16 Bit; Stereo


TOC of the extracted CD

Track | Start | Length | Start sector | End sector
---------------------------------------------------------
1 | 0:00.00 | 3:58.55 | 0 | 17904
2 | 3:58.55 | 3:54.69 | 17905 | 35523
3 | 7:53.49 | 3:22.43 | 35524 | 50716
4 | 11:16.17 | 4:33.02 | 50717 | 71193
5 | 15:49.19 | 5:36.45 | 71194 | 96438
6 | 21:25.64 | 3:49.65 | 96439 | 113678
7 | 25:15.54 | 4:21.41 | 113679 | 133294
8 | 29:37.20 | 4:57.08 | 133295 | 155577
9 | 34:34.28 | 3:39.14 | 155578 | 172016
10 | 38:13.42 | 3:36.41 | 172017 | 188257


Range status and errors

Selected range

Filename D:\.www.AvaxHome.ru\Carcass - Heartwork.wav

Peak level 99.0 %
Extraction speed 7.2 X
Range quality 100.0 %
Test CRC 1D9B38E3
Copy CRC 1D9B38E3
Copy OK

No errors occurred


AccurateRip summary

Track 1 accurately ripped (confidence 2) [6FCC9A19] (AR v1)
Track 2 accurately ripped (confidence 2) [802B6D86] (AR v1)
Track 3 accurately ripped (confidence 2) [747AFEAC] (AR v1)
Track 4 accurately ripped (confidence 2) [737FD328] (AR v1)
Track 5 accurately ripped (confidence 2) [392D369B] (AR v1)
Track 6 accurately ripped (confidence 2) [EFC3AD43] (AR v1)
Track 7 accurately ripped (confidence 2) [7DB38A8A] (AR v1)
Track 8 accurately ripped (confidence 2) [A660C9B2] (AR v1)
Track 9 accurately ripped (confidence 2) [48FDEFCC] (AR v1)
Track 10 accurately ripped (confidence 2) [55F96137] (AR v1)

All tracks accurately ripped

End of status report

---- CUETools DB Plugin V2.1.3

[CTDB TOCID: Z2rzLsjoTOzlcBy98Fd96eJcS3I-] found, Submit result: Z2rzLsjoTOzlcBy98Fd96eJcS3I- has been confirmed
[65834a1b] (20/20) Accurately ripped


==== Log checksum C2CE5B94EC74A00B458E283CF55A5BA40BA6A6F83308569EA59085832C011CB3 ====

auCDtect + Dynamic Range
-----------------------

DON'T MODIFY THIS FILE

-----------------------

PERFORMER: auCDtect Task Manager, ver. 1.5.1RC3 build 1.5.1.4
Copyright (c) 2008-2010 y-soft. All rights reserved
http://y-soft.org

ANALYZER: auCDtect: CD records authenticity detector, version 0.8.2
Copyright (c) 2004 Oleg Berngardt. All rights reserved.
Copyright (c) 2004 Alexander Djourik. All rights reserved.


FILE: Carcass - Heartwork.wav
Size: 442782860 Hash: 5E19EEB64F49B9C36C73682A21DE7C90 Accuracy: -m0
Conclusion: CDDA 100%
Signature: 08637BC59B3717595BDF03FEE9C5C372EE9D090F

================================================================================

foobar2000 1.1.3 / Dynamic Range Meter 1.1.0
log date: 2012-04-10 18:33:04

--------------------------------------------------------------------------------
Analyzed: Carcass / Heartwork
--------------------------------------------------------------------------------

DR Peak RMS Duration Track
--------------------------------------------------------------------------------
DR7 -0.08 dB -7.67 dB 3:59 01-Buried Dreams
DR6 -0.08 dB -6.82 dB 3:55 02-Carnal Forge
DR7 -0.08 dB -7.62 dB 3:23 03-No Love Lost
DR6 -0.08 dB -7.14 dB 4:33 04-Heartwork
DR6 -0.08 dB -6.77 dB 5:37 05-Embodiment
DR6 -0.08 dB -7.17 dB 3:50 06-This Mortal Coil
DR6 -0.08 dB -7.06 dB 4:22 07-Arbeit Macht Fleisch
DR7 -0.08 dB -7.97 dB 4:57 08-Blind Bleeding The Blind
DR6 -0.08 dB -7.30 dB 3:39 09-Doctrinal Expletives
DR7 -0.08 dB -8.12 dB 3:37 10-Death Certificate
--------------------------------------------------------------------------------

Number of tracks: 10
Official DR value: DR6

Samplerate: 44100 Hz
Channels: 2
Bits per sample: 16
Bitrate: 1411 kbps
Codec: PCM
================================================================================

The Pre-Heartwork Parr Street Demos February 1993 :

1. Blind Bleeding The Blind - 5:15
2. Buried Dreams - 4:07
3. Carnal Forge - 4:06
4. Death Certificate - 3:50
5. Deliverance - 5:53
6. Doctrinal Expletives - 3:45
7. Heartwork - 4:38
8. No Love Lost - 3:26
9. This Mortal Coil - 4:05
10. Arbeit Macht Frei - 4:32

EAC extraction logfile
Exact Audio Copy V1.0 beta 3 from 29. August 2011

EAC extraction logfile from 8. April 2012, 21:08

Carcass / Heartwork Bonus CD (PreHeartwork Parr Street Demos February 1993)

Used drive : PIONEER DVD-RW DVR-219L Adapter: 1 ID: 0

Read mode : Secure
Utilize accurate stream : Yes
Defeat audio cache : Yes
Make use of C2 pointers : No

Read offset correction : 6
Overread into Lead-In and Lead-Out : No
Fill up missing offset samples with silence : Yes
Delete leading and trailing silent blocks : No
Null samples used in CRC calculations : Yes
Used interface : Native Win32 interface for Win NT & 2000

Used output format : Internal WAV Routines
Sample format : 44.100 Hz; 16 Bit; Stereo


TOC of the extracted CD

Track | Start | Length | Start sector | End sector
---------------------------------------------------------
1 | 0:00.00 | 5:14.51 | 0 | 23600
2 | 5:14.51 | 4:06.39 | 23601 | 42089
3 | 9:21.15 | 4:05.42 | 42090 | 60506
4 | 13:26.57 | 3:49.56 | 60507 | 77737
5 | 17:16.38 | 5:52.64 | 77738 | 104201
6 | 23:09.27 | 3:45.06 | 104202 | 121082
7 | 26:54.33 | 4:37.71 | 121083 | 141928
8 | 31:32.29 | 3:26.12 | 141929 | 157390
9 | 34:58.41 | 4:05.01 | 157391 | 175766
10 | 39:03.42 | 4:31.49 | 175767 | 196140


Range status and errors

Selected range

Filename D:\.www.AvaxHome.ru\Carcass - Heartwork Bonus CD (PreHeartwork Parr Street Demos February 1993).wav

Peak level 99.1 %
Extraction speed 7.3 X
Range quality 100.0 %
Test CRC A603EA08
Copy CRC A603EA08
Copy OK

No errors occurred


AccurateRip summary

Track 1 cannot be verified as accurate (confidence 10) [88692F55], AccurateRip returned [143B788E] (AR v2)
Track 2 cannot be verified as accurate (confidence 10) [B0CFA7EA], AccurateRip returned [74E28B4C] (AR v2)
Track 3 cannot be verified as accurate (confidence 10) [013C23D3], AccurateRip returned [1F5C2A9F] (AR v2)
Track 4 cannot be verified as accurate (confidence 10) [7C2ADEC7], AccurateRip returned [9406BD2F] (AR v2)
Track 5 cannot be verified as accurate (confidence 10) [073E7CF6], AccurateRip returned [F79156D7] (AR v2)
Track 6 cannot be verified as accurate (confidence 10) [9FE766EF], AccurateRip returned [4604B841] (AR v2)
Track 7 cannot be verified as accurate (confidence 10) [8392C305], AccurateRip returned [1DB86E03] (AR v2)
Track 8 cannot be verified as accurate (confidence 10) [BAD517E8], AccurateRip returned [7475BDA0] (AR v2)
Track 9 cannot be verified as accurate (confidence 10) [0EA65734], AccurateRip returned [AAF8B351] (AR v2)
Track 10 cannot be verified as accurate (confidence 9) [D2EB5C33], AccurateRip returned [C76E3DE5] (AR v2)

No tracks could be verified as accurate
You may have a different pressing from the one(s) in the database

End of status report

---- CUETools DB Plugin V2.1.3

[CTDB TOCID: WvpU4pjZzXAZb4y6U8ggctkPfso-] found, Submit result: WvpU4pjZzXAZb4y6U8ggctkPfso- has been confirmed
[02b7666f] (11/11) Accurately ripped


==== Log checksum EED9F7F5EA70EEF7FF5BBF7B3F09BCEEF93EEA3C0E684DBF9B9127F0436F9E18 ====

auCDtect + Dynamic Range
-----------------------

DON'T MODIFY THIS FILE

-----------------------

PERFORMER: auCDtect Task Manager, ver. 1.5.1RC3 build 1.5.1.4
Copyright (c) 2008-2010 y-soft. All rights reserved
http://y-soft.org

ANALYZER: auCDtect: CD records authenticity detector, version 0.8.2
Copyright (c) 2004 Oleg Berngardt. All rights reserved.
Copyright (c) 2004 Alexander Djourik. All rights reserved.


FILE: Carcass - Heartwork Bonus CD (PreHeartwork Parr Street Demos February 1993).wav
Size: 461323676 Hash: BF6B4740B6A299754DDC36BCE2405BDC Accuracy: -m0
Conclusion: CDDA 100%
Signature: DCF0896AFB109C883B118B743D12BAECF27FCB10

================================================================================

foobar2000 1.1.3 / Dynamic Range Meter 1.1.0
log date: 2012-04-10 18:32:45

--------------------------------------------------------------------------------
Analyzed: Carcass / Heartwork Bonus CD (PreHeartwork Parr Street Demos February 1993)
--------------------------------------------------------------------------------

DR Peak RMS Duration Track
--------------------------------------------------------------------------------
DR8 -0.08 dB -8.37 dB 5:15 01-Blind Bleeding The Blind
DR7 -0.08 dB -7.98 dB 4:07 02-Buried Dreams
DR7 -0.08 dB -8.21 dB 4:06 03-Carnal Forge
DR7 -0.08 dB -7.91 dB 3:50 04-Death Certificate
DR8 -0.08 dB -8.33 dB 5:53 05-Deliverance
DR7 -0.08 dB -8.24 dB 3:45 06-Doctrinal Expletives
DR8 -0.08 dB -8.47 dB 4:38 07-Heartwork
DR7 -0.08 dB -8.02 dB 3:26 08-No Love Lost
DR8 -0.08 dB -8.40 dB 4:05 09-This Mortal Coil
DR7 -0.08 dB -8.22 dB 4:32 10-Arbeit Macht Frei
--------------------------------------------------------------------------------

Number of tracks: 10
Official DR value: DR7

Samplerate: 44100 Hz
Channels: 2
Bits per sample: 16
Bitrate: 1411 kbps
Codec: PCM
================================================================================

DVD4: The Complete Pathologist's Report Part IV - Epidemic

1. Lyrical Inspiration & Themes
2. Parr Street Studios
3. Colin Richardson As Producer
4. H.R. Giger
5. Were Your Hearts Still Into The Work?
6. Touring The Album
7. Veggies & Vegans
8. The Importance Of Mike
09. Mike's Departure
10. Arbeit Macht Fleisch

• Jeff Walker - Vocals, Bass
• Michael Amott - Guitars
• Bill Steer - Guitars
• Ken Owen - Drums





CD5: Swansong
EAC Rip | FLAC, IMG+CUE+LOG | 450 MB | MP3 CBR 320 Kbps | 120 MB | Complete HQ Scans | PNG -> 90 MB
DVD -> Folder | NTSC 720x480, 29,97 fps | ~ 33 min | English 2.0 Stereo (LPCM 1536 Kbps) | 2.3 GB
Label: Earache Records Ltd. #MOSH1602 | RAR 3% Rec. | Uploaded.net

Carcass's Swansong alienated many, it was yet another gear-shift from a band who had changed styles repeatedly. But this, for most hardcore Carcass fans, was one shift too far away from their initial template. Criticisms of this album kept me away from it for years, which is odd as the albums that turn the fanbase tend to be some of my favorites (Spheres, Diatribes, Wolverine Blues, Chaos A.D.) for the simple reason that they were accessible right when I was first discovering metal. I also dig change. I don't want to hear the same album over and over again. I want bands to step out and challenge themselves. If the music is still good, I will support it. And the music on Swansong is fantastic.

"Keep On Rotting In The Free World" sets the stage, expanding on the slower moments from Heartwork and ladening them with even bigger hooks, meaty riffs, dazzling solos, even some cowbell. Yes, it rocks in a more traditional sense but it is far from the sell-out I had imagined. This song would drain the blood out of any mainstream AOR junkie. Ditto, "R**k The Vote," you wouldn't know it was Carcass except that it is so obviously Carcass once the double-bass and Jeff's snarling rasp kick in. There's melody, harmony, dissonance, crushing heaviness -- the perfect recipe for a kick-ass metal record. Carcass masters the template, much as they did earlier with both goregrind and melodic death metal .

Carcass are toying with their non-grind influences here, mainly NWOBHM filtered through some T-Rex/Thin Lizzy; add a dash of Sabbath and a heaping helping of Helmet (I'm thinking the opening riff to "Tomorrow Belongs To Nobody" in particular) and you get the majority of Swansong. It's a huge sound and it feels logical, a perfect extension out of Heartwork's best moments. The riffs are big, epic even; the hooks are razor sharp; and the vocals are vile. Had Jeff Walker recorded the clean vocals he had been pressured to use or had the riffs been less dirty, well then, maybe I would feel a little different. But songs like "Firm Hand" and "Polarized" are nasty little numbers, pure metal evil, with pummeling double bass and multi-faceted guitar playing.

The production on this record is superior, similar to Heartwork, fuller even. Cranked up, it's heavy as hell, enough to shake my speakers off their stands.
Every instrument sounds strong and crisp, with perfect separation. Jeff's bass playing is the most audible it has ever been, demonstrating that he does more than just follow the riffs. If I had to pick a perfectly recorded metal album, it might be this one. Colin Richardson really outdid himself. He's quickly become my favorite metal producer.

~ www.metal-archives.com

Tracklist :

1. Keep On Rotting In The Free World - 3:41
2. Tomorrow Belongs To Nobody - 4:18
3. Black Star - 3:29
4. Cross My Heart - 3:34
5. Childs Play - 5:42
6. Room 101 - 4:36
7. Polarized - 4:02
8. Generation Hexed - 3:47
9. Firm Hand - 5:23
10. R**K The Vote - 3:52
11. Don't Believe A Word - 3:57
12. Go To Hell - 3:21
13. Death Rider Da (Bonus Track) - 1:18

EAC extraction logfile
Exact Audio Copy V1.0 beta 3 from 29. August 2011

EAC extraction logfile from 8. April 2012, 21:27

Carcass / Swansong

Used drive : PIONEER DVD-RW DVR-219L Adapter: 1 ID: 0

Read mode : Secure
Utilize accurate stream : Yes
Defeat audio cache : Yes
Make use of C2 pointers : No

Read offset correction : 6
Overread into Lead-In and Lead-Out : No
Fill up missing offset samples with silence : Yes
Delete leading and trailing silent blocks : No
Null samples used in CRC calculations : Yes
Used interface : Native Win32 interface for Win NT & 2000

Used output format : Internal WAV Routines
Sample format : 44.100 Hz; 16 Bit; Stereo


TOC of the extracted CD

Track | Start | Length | Start sector | End sector
---------------------------------------------------------
1 | 0:00.00 | 3:40.60 | 0 | 16559
2 | 3:40.60 | 4:17.58 | 16560 | 35892
3 | 7:58.43 | 3:28.45 | 35893 | 51537
4 | 11:27.13 | 3:33.56 | 51538 | 67568
5 | 15:00.69 | 5:42.24 | 67569 | 93242
6 | 20:43.18 | 4:35.48 | 93243 | 113915
7 | 25:18.66 | 4:01.43 | 113916 | 132033
8 | 29:20.34 | 3:47.26 | 132034 | 149084
9 | 33:07.60 | 5:22.47 | 149085 | 173281
10 | 38:30.32 | 3:52.30 | 173282 | 190711
11 | 42:22.62 | 3:57.29 | 190712 | 208515
12 | 46:20.16 | 3:21.30 | 208516 | 223620
13 | 49:41.46 | 1:18.28 | 223621 | 229498


Range status and errors

Selected range

Filename D:\.www.AvaxHome.ru\Carcass - Swansong.wav

Peak level 99.4 %
Extraction speed 7.6 X
Range quality 100.0 %
Test CRC A9946F96
Copy CRC A9946F96
Copy OK

No errors occurred


AccurateRip summary

Track 1 accurately ripped (confidence 2) [5C3F029E] (AR v1)
Track 2 accurately ripped (confidence 2) [CE02103A] (AR v1)
Track 3 accurately ripped (confidence 2) [74442A75] (AR v1)
Track 4 accurately ripped (confidence 2) [B3D4A945] (AR v1)
Track 5 accurately ripped (confidence 2) [4DDDFC36] (AR v1)
Track 6 accurately ripped (confidence 2) [D3B2F4A0] (AR v1)
Track 7 accurately ripped (confidence 2) [D4F63F85] (AR v1)
Track 8 accurately ripped (confidence 2) [67DE9E4D] (AR v1)
Track 9 accurately ripped (confidence 2) [455FE774] (AR v1)
Track 10 accurately ripped (confidence 2) [4E6C5228] (AR v1)
Track 11 accurately ripped (confidence 2) [5231A683] (AR v1)
Track 12 accurately ripped (confidence 2) [711180CD] (AR v1)
Track 13 accurately ripped (confidence 2) [45EC770F] (AR v1)

All tracks accurately ripped

End of status report

---- CUETools DB Plugin V2.1.3

[CTDB TOCID: ki9jWA.X3.cE6x2O27zPlx_suKs-] found, Submit result: ki9jWA.X3.cE6x2O27zPlx_suKs- has been confirmed
[033c0515] (17/17) Accurately ripped


==== Log checksum 011EBC037310F7E3A7FD8BA68CE5526E76A16EF87625017A7986EE918558D8A3 ====

auCDtect + Dynamic Range
-----------------------

DON'T MODIFY THIS FILE

-----------------------

PERFORMER: auCDtect Task Manager, ver. 1.5.1RC3 build 1.5.1.4
Copyright (c) 2008-2010 y-soft. All rights reserved
http://y-soft.org

ANALYZER: auCDtect: CD records authenticity detector, version 0.8.2
Copyright (c) 2004 Oleg Berngardt. All rights reserved.
Copyright (c) 2004 Alexander Djourik. All rights reserved.


FILE: Carcass - Swansong.wav
Size: 539781692 Hash: CEFE62703223360FCD464F39CD940BF4 Accuracy: -m0
Conclusion: CDDA 100%
Signature: F1CBD8D193D989EFD9277B19F23DDD3FE9AB3E0B

================================================================================

foobar2000 1.1.3 / Dynamic Range Meter 1.1.0
log date: 2012-04-10 18:32:25

--------------------------------------------------------------------------------
Analyzed: Carcass / Swansong
--------------------------------------------------------------------------------

DR Peak RMS Duration Track
--------------------------------------------------------------------------------
DR6 -0.08 dB -6.37 dB 3:41 01-Keep On Rotting In The Free World
DR6 -0.08 dB -6.62 dB 4:18 02-Tomorrow Belongs To Nobody
DR5 -0.08 dB -6.15 dB 3:29 03-Black Star
DR6 -0.08 dB -7.04 dB 3:34 04-Cross My Heart
DR6 -0.08 dB -7.01 dB 5:42 05-Childs Play
DR6 -0.08 dB -6.33 dB 4:36 06-Room 101
DR5 -0.08 dB -6.08 dB 4:02 07-Polarized
DR6 -0.08 dB -7.00 dB 3:47 08-Generation Hexed
DR7 -0.08 dB -7.47 dB 5:23 09-Firm Hand
DR6 -0.08 dB -6.30 dB 3:52 10-R**K The Vote
DR5 -0.08 dB -5.80 dB 3:57 11-Don't Believe A Word
DR6 -0.08 dB -6.74 dB 3:21 12-Go To Hell
DR5 -0.05 dB -6.20 dB 1:18 13-Death Rider Da (Bonus Track)
--------------------------------------------------------------------------------

Number of tracks: 13
Official DR value: DR6

Samplerate: 44100 Hz
Channels: 2
Bits per sample: 16
Bitrate: 1411 kbps
Codec: PCM
================================================================================

DVD5: The Complete Pathologist's Report Part V - Decomposition

1. Issues With Release
2. Extreme But Not As We Know It
3. Moving To Columbia
4. The Cover Artwork
5. Mike Hickey & Carlo's Involvement
6. The End Is Nigh
7. The Aftermath
8. Influencing The Next Generation
9. Ken Talks About His Illness
10. Outtakes

• Jeff Walker - Vocals, Bass
• Carlo Regadas - Guitars
• Bill Steer - Guitars
• Ken Owen - Drums

Please, do not write these links at any web pages. Enjoy & keep the files alive!
* - EAC Image, standard LOG, embedded cuesheet, Foobar2000 ready
In case you encounter some dead links, please leave the comment here or send me a private message!

Download links

CD1: Reek of Putrefaction & Flesh Ripping Sonic Torment Demo
Lossless (FLAC)* - http://uploaded.net/file/n2m5q9ku/CRSSCD1LOS.rar
All Covers.png - http://uploaded.net/file/ih4jv79s/CRSSCD1COV.rar
Lossy HQ (320 Kbps CBR) - http://uploaded.net/file/7dok33ro/CRSSCD1MP3.rar

DVD: The Pathologist's Report Part I - Incubation
http://uploaded.net/file/v94q1q69/CRSSDVD1.part1.rar
http://uploaded.net/file/vxxxndzt/CRSSDVD1.part2.rar
http://uploaded.net/file/f7kuqpag/CRSSDVD1.part3.rar
http://uploaded.net/file/ye2xkfvg/CRSSDVD1.part4.rar
http://uploaded.net/file/2md8l62m/CRSSDVD1.part5.rar

***

CD2: Symphonies of Sickness + Symphonies of Sickness Demo
Lossless (FLAC)* - http://uploaded.net/file/vlo4k7ak/CRSSCD2LOS.rar
All Covers.png - http://uploaded.net/file/ctbcrh57/CRSSCD2COV.rar
Lossy HQ (320 Kbps CBR) - http://uploaded.net/file/0wr5un26/CRSSCD2MP3.rar

DVD: The Pathologist's Report Part II - Propagation
http://uploaded.net/file/2s972pry/CRSSDVD2.part1.rar
http://uploaded.net/file/ebdyw079/CRSSDVD2.part2.rar
http://uploaded.net/file/nrmuav8x/CRSSDVD2.part3.rar
http://uploaded.net/file/w61yfii5/CRSSDVD2.part4.rar
http://uploaded.net/file/bx4qw8ia/CRSSDVD2.part5.rar


***

CD3: Necroticism - Descanting the Insalubrious + 3 Bonustracks
Lossless (FLAC)* - http://uploaded.net/file/w7u72uvx/CRSSCD3LOS.rar
All Covers.png - http://uploaded.net/file/v33jivww/CRSSCD3COV.rar
Lossy HQ (320 Kbps CBR) - http://uploaded.net/file/xvelc8ff/CRSSCD3MP3.rar

DVD: The Pathologist's Report Part III - Mass Infection
http://uploaded.net/file/guxwqkwv/CRSSDVD3.part1.rar
http://uploaded.net/file/8srrsh4y/CRSSDVD3.part2.rar
http://uploaded.net/file/lctbgylm/CRSSDVD3.part3.rar
http://uploaded.net/file/22iwcag9/CRSSDVD3.part4.rar
http://uploaded.net/file/s75glp0t/CRSSDVD3.part5.rar
http://uploaded.net/file/osfy4n2j/CRSSDVD3.part6.rar
http://uploaded.net/file/1az3tpqr/CRSSDVD3.part7.rar
http://uploaded.net/file/15tft06l/CRSSDVD3.part8.rar

***

CD4: Heartwork
Lossless (FLAC)* - http://uploaded.net/file/ewq64xbn/CRSSCD4LOS.rar
Lossy HQ (320 Kbps CBR) - http://uploaded.net/file/ekhcy59c/CRSSCD4MP3.rar

CD4-1: The Pre-Heartwork Parr Street Demos February 1993
Lossless (FLAC)* - http://uploaded.net/file/h2t0yomp/CRSSCD4BLOS.rar
Lossy HQ (320 Kbps CBR) - http://uploaded.net/file/ij65tqyc/CRSSCD4BMP3.rar

All Covers.png - http://uploaded.net/file/dvubjgnz/CRSSCD4COV.rar

DVD: The Pathologist's Report Part IV - Epidemic
http://uploaded.net/file/im4rutfv/CRSSDVD4.part1.rar
http://uploaded.net/file/noa53rtg/CRSSDVD4.part2.rar
http://uploaded.net/file/t5n45jld/CRSSDVD4.part3.rar
http://uploaded.net/file/9ieedo7f/CRSSDVD4.part4.rar
http://uploaded.net/file/bck5dwoq/CRSSDVD4.part5.rar
http://uploaded.net/file/ntzll5hq/CRSSDVD4.part6.rar

***

CD5: Swansong + 1 Bonustrack
Lossless (FLAC)* - http://uploaded.net/file/amn0rjyb/CRSSCD5LOS.rar
Lossy HQ (320 Kbps CBR) - http://uploaded.net/file/zo8hrr1h/CRSSCD5MP3.rar
All Covers.png - http://uploaded.net/file/fekth464/CRSSCD5COV.rar

DVD: The Pathologist's Report Part V - Decomposition
http://uploaded.net/file/79a96udm/CRSSDVD5.part1.rar
http://uploaded.net/file/5w69f638/CRSSDVD5.part2.rar
http://uploaded.net/file/4tcd52a3/CRSSDVD5.part3.rar
http://uploaded.net/file/47bezj7k/CRSSDVD5.part4.rar
http://uploaded.net/file/xu4mu4p1/CRSSDVD5.part5.rar

* Original CD -> EAC image, embedded cuesheet & more, foobar2000 ready, etc.
(all CUEs, LOGs and other technical info includes in the internal "CD_Support" archive).

Please, do not write these links at any web pages. Enjoy & keep the files alive!
ADVERTISING » Very Fast Download! « ADVERTISING


Posted By: Rehabilly Date: 14 Apr 2012 17:38:01
EXCELLENT! THANKS A LOT. GREATWORK ;)
Posted By: juanpablor Date: 08 May 2012 05:55:48
Thanks Necromandus... great contribution! \00/
Posted By: mongoliant Date: 25 Mar 2013 13:21:15
This is AWESOME AWESOMENESS!!!! And they'll play here in Chile this next month!!!! WHat a gift! THANKS A LOT!!!!
Posted By: Antipop Date: 02 May 2013 00:54:57
Thanks for sharing.
Posted By: ePhysician Date: 22 Jun 2013 00:43:16
Necromandus thank you a million!