Loading...

Thelonious Monk - The Complete Blue Note Recordings (1994) {PROPER}

Posted By : Bezz | Date : 25 May 2012 00:43:28 | Comments : 6 |
|



Thelonious Monk - The Complete Blue Note Recordings (1994) {PROPER}
EAC rip | APE+CUE+LOG | Scans | 4 CDs | 910 Mb (Incl. Recovery)
Genre ~ Bop, Piano Jazz | Label ~ Blue Note Records

This magnificent limited-edition set launched the Mosaic label in real style. Included are all of Thelonious Monk's Blue Note recordings, six sessions as a leader from 1947-52 complete with alternate takes plus two titles cut with tenor-saxophonist Sonny Rollins in 1957. Since these were Monk's first opportunities to lead his own recording dates, this set includes the original versions of such classics as "Ruby, My Dear," "Well You Needn't," "Off Minor," "In Walked Bud," "Evidence," "Criss Cross" and "Straight No Chaser" along with Monk's first chance to record "'Round Midnight" and "Epistrophy." The sidemen include such notables as trumpeters Kenny Dorham and Idrees Sulieman, drummers Art Blakey and Max Roach, vibraphonist Milt Jackson, altoist Lou Donaldson and tenor-saxophonist Lucky Thompson, but it is the unique pianist/composer who is the main star. Many of these recordings (generally the master takes) has been reissued in other forms by Blue Note. ~ Allmusic

Tracklist


1. Humph
2. Evonce [alternate take]
3. Evonce
4. Suburban Eyes
5. Suburban Eyes [alternate take]
6. Thelonious
7. Nice Work If You Can Get It [alternate take]
8. Nice Work If You Can Get It
9. Ruby My Dear
10. Ruby My Dear [alternate take]
11. Well You Needn't
12. Well You Needn't [alternate take]
13. April In Paris [alternate take]
14. April In Paris
15. Off Minor
16. Introspection
17. In Walked Bud
18. Monk's Mood
19. Who Knows
20. Round Midnight
21. Who Knows [alternate take]

EAC Log
Exact Audio Copy V0.99 prebeta 4 from 23. January 2008

Отчёт EAC об извлечении, выполненном 6. сентября 2009, 9:58

Thelonious Monk / The Complete Blue Note Recordings (Disc 1)

Дисковод: Optiarc DVD RW AD-7200A Adapter: 3 ID: 1

Режим чтения : Достоверность
Использование точного потока : Да
Отключение кэша аудио : Да
Использование указателей C2 : Нет

Коррекция смещения при чтении : 48
Способность читать области Lead-in и Lead-out : Нет
Заполнение пропущенных сэмплов тишиной : Да
Удаление блоков с тишиной в начале и конце : Нет
При вычислениях CRC использовались нулевые сэмплы : Да
Интерфейс : Установленный внешний ASPI-интерфейс

Выходной формат : Внутренние WAV-операции
Формат сэмплов : 44.100 Гц; 16 бит; стерео

TOC извлечённого CD

Трек | Старт | Длительность | Начальный сектор | Конечный сектор
---------------------------------------------------------------------
1 | 0:00.32 | 2:53.23 | 32 | 13029
2 | 2:53.55 | 3:02.62 | 13030 | 26741
3 | 5:56.42 | 3:04.70 | 26742 | 40611
4 | 9:01.37 | 3:01.10 | 40612 | 54196
5 | 12:02.47 | 2:58.00 | 54197 | 67546
6 | 15:00.47 | 3:01.10 | 67547 | 81131
7 | 18:01.57 | 3:03.23 | 81132 | 94879
8 | 21:05.05 | 3:03.47 | 94880 | 108651
9 | 24:08.52 | 3:06.03 | 108652 | 122604
10 | 27:14.55 | 3:08.15 | 122605 | 136719
11 | 30:22.70 | 2:57.62 | 136720 | 150056
12 | 33:20.57 | 2:55.18 | 150057 | 163199
13 | 36:16.00 | 2:42.25 | 163200 | 175374
14 | 38:58.25 | 3:20.40 | 175375 | 190414
15 | 42:18.65 | 3:01.47 | 190415 | 204036
16 | 45:20.37 | 3:12.68 | 204037 | 218504
17 | 48:33.30 | 2:56.52 | 218505 | 231756
18 | 51:30.07 | 3:08.03 | 231757 | 245859
19 | 54:38.10 | 2:42.37 | 245860 | 258046
20 | 57:20.47 | 3:11.58 | 258047 | 272429
21 | 60:32.30 | 2:40.10 | 272430 | 284439

Характеристики диапазона извлечения и сообщения об ошибках

Выбранный диапазон

Имя файла E:\Up-Down\Thelonious Monk - The Complete Blue Note Recordings\CD1\Thelonious Monk - The Complete Blue Note Recordings (Disc 1).wav

Пиковый уровень 98.7 %
Качество диапазона 99.9 %
CRC копии DF2237D1
Копирование... OK

Ошибок не произошло

AccurateRip: сводка

Трек 1 точное извлечение (доверие 4) [D40C36B7]
Трек 2 точное извлечение (доверие 4) [3D36DA30]
Трек 3 точное извлечение (доверие 4) [9BE78EB4]
Трек 4 точное извлечение (доверие 4) [E3FC6B05]
Трек 5 точное извлечение (доверие 4) [34E5A04D]
Трек 6 точное извлечение (доверие 4) [62AD183B]
Трек 7 точное извлечение (доверие 4) [2C21F607]
Трек 8 точное извлечение (доверие 4) [32693EC1]
Трек 9 точное извлечение (доверие 4) [E8527F8C]
Трек 10 точное извлечение (доверие 4) [4F991A96]
Трек 11 точное извлечение (доверие 5) [B583B422]
Трек 12 точное извлечение (доверие 4) [61B7B7D8]
Трек 13 точное извлечение (доверие 4) [9B57E819]
Трек 14 точное извлечение (доверие 4) [BFA7E563]
Трек 15 точное извлечение (доверие 4) [BDD02C78]
Трек 16 точное извлечение (доверие 4) [C83801B7]
Трек 17 точное извлечение (доверие 4) [99BE95CD]
Трек 18 точное извлечение (доверие 4) [0EFDFE1E]
Трек 19 точное извлечение (доверие 5) [E63B902C]
Трек 20 точное извлечение (доверие 4) [E13E6903]
Трек 21 точное извлечение (доверие 4) [24BBC4BC]

Все треки извлечены точно

Конец отчёта


1. All The Things You Are
2. I Should Care [alternate take]
3. I Should Care
4. Evidence
5. Misterioso
6. Misterioso [alternate take]
7. Epistrophy
8. I Mean You
9. Four In One
10. Four In One [alternate take]
11. Criss Cross
12. Criss Cross [alternate take]
13. Eronel
14. Straight No Chaser
15. Ask Me Now
16. Ask Me Now [alternate take]
17. Willow Weep For Me

EAC Log
Exact Audio Copy V0.99 prebeta 4 from 23. January 2008

Отчёт EAC об извлечении, выполненном 6. сентября 2009, 10:27

Thelonious Monk / The Complete Blue Note Recordings (Disc 2)

Дисковод: Optiarc DVD RW AD-7200A Adapter: 3 ID: 1

Режим чтения : Достоверность
Использование точного потока : Да
Отключение кэша аудио : Да
Использование указателей C2 : Нет

Коррекция смещения при чтении : 48
Способность читать области Lead-in и Lead-out : Нет
Заполнение пропущенных сэмплов тишиной : Да
Удаление блоков с тишиной в начале и конце : Нет
При вычислениях CRC использовались нулевые сэмплы : Да
Интерфейс : Установленный внешний ASPI-интерфейс

Выходной формат : Внутренние WAV-операции
Формат сэмплов : 44.100 Гц; 16 бит; стерео

TOC извлечённого CD

Трек | Старт | Длительность | Начальный сектор | Конечный сектор
---------------------------------------------------------------------
1 | 0:00.32 | 2:59.40 | 32 | 13496
2 | 2:59.72 | 3:03.15 | 13497 | 27236
3 | 6:03.12 | 3:01.70 | 27237 | 40881
4 | 9:05.07 | 2:34.48 | 40882 | 52479
5 | 11:39.55 | 3:22.70 | 52480 | 67699
6 | 15:02.50 | 2:45.72 | 67700 | 80146
7 | 17:48.47 | 3:08.10 | 80147 | 94256
8 | 20:56.57 | 2:47.20 | 94257 | 106801
9 | 23:44.02 | 3:30.53 | 106802 | 122604
10 | 27:14.55 | 3:29.45 | 122605 | 138324
11 | 30:44.25 | 2:57.30 | 138325 | 151629
12 | 33:41.55 | 2:51.02 | 151630 | 164456
13 | 36:32.57 | 3:04.50 | 164457 | 178306
14 | 39:37.32 | 2:57.73 | 178307 | 191654
15 | 42:35.30 | 4:28.57 | 191655 | 211811
16 | 47:04.12 | 3:15.73 | 211812 | 226509
17 | 50:20.10 | 3:00.52 | 226510 | 240061

Характеристики диапазона извлечения и сообщения об ошибках

Выбранный диапазон

Имя файла E:\Up-Down\Thelonious Monk - The Complete Blue Note Recordings\CD2\Thelonious Monk - The Complete Blue Note Recordings (Disc 2).wav

Пиковый уровень 95.7 %
Качество диапазона 100.0 %
CRC копии 666933DD
Копирование... OK

Ошибок не произошло

AccurateRip: сводка

Трек 1 точное извлечение (доверие 5) [00C1F0CA]
Трек 2 точное извлечение (доверие 5) [542581DE]
Трек 3 точное извлечение (доверие 5) [61D962B3]
Трек 4 точное извлечение (доверие 5) [FB7AC136]
Трек 5 точное извлечение (доверие 5) [0AB31D96]
Трек 6 точное извлечение (доверие 5) [0F9E425C]
Трек 7 точное извлечение (доверие 5) [61D21920]
Трек 8 точное извлечение (доверие 5) [30165087]
Трек 9 точное извлечение (доверие 5) [62103B9C]
Трек 10 точное извлечение (доверие 5) [269280D7]
Трек 11 точное извлечение (доверие 5) [4B919F19]
Трек 12 точное извлечение (доверие 5) [CA8D1FA3]
Трек 13 точное извлечение (доверие 5) [ACAB8E2C]
Трек 14 точное извлечение (доверие 5) [58D11004]
Трек 15 точное извлечение (доверие 5) [9944683B]
Трек 16 точное извлечение (доверие 5) [A804B744]
Трек 17 точное извлечение (доверие 5) [1DB0D1B7]

Все треки извлечены точно

Конец отчёта


1. Skippy
2. Skippy [alternate take]
3. Hornin' In [alternate take]
4. Hornin' In
5. Sixteen [first take]
6. Sixteen [second take]
7. Carolina Moon [alternate take]
8. Let's Cool One
9. I'll Follow You
10. Reflections
11. Misterioso

EAC Log
Exact Audio Copy V0.99 prebeta 4 from 23. January 2008

Отчёт EAC об извлечении, выполненном 6. сентября 2009, 16:30

Thelonious Monk / The Complete Blue Note Recordings (Disc 3)

Дисковод: Optiarc DVD RW AD-7200A Adapter: 3 ID: 1

Режим чтения : Достоверность
Использование точного потока : Да
Отключение кэша аудио : Да
Использование указателей C2 : Нет

Коррекция смещения при чтении : 48
Способность читать области Lead-in и Lead-out : Нет
Заполнение пропущенных сэмплов тишиной : Да
Удаление блоков с тишиной в начале и конце : Нет
При вычислениях CRC использовались нулевые сэмплы : Да
Интерфейс : Установленный внешний ASPI-интерфейс

Выходной формат : Внутренние WAV-операции
Формат сэмплов : 44.100 Гц; 16 бит; стерео

TOC извлечённого CD

Трек | Старт | Длительность | Начальный сектор | Конечный сектор
---------------------------------------------------------------------
1 | 0:00.00 | 3:02.07 | 0 | 13656
2 | 3:02.07 | 3:10.23 | 13657 | 27929
3 | 6:12.30 | 3:09.57 | 27930 | 42161
4 | 9:22.12 | 3:14.73 | 42162 | 56784
5 | 12:37.10 | 3:31.10 | 56785 | 72619
6 | 16:08.20 | 3:40.07 | 72620 | 89126
7 | 19:48.27 | 3:28.45 | 89127 | 104771
8 | 23:16.72 | 3:49.55 | 104772 | 122001
9 | 27:06.52 | 3:48.40 | 122002 | 139141
10 | 30:55.17 | 7:03.55 | 139142 | 170921
11 | 37:58.72 | 9:22.40 | 170922 | 213111

Характеристики диапазона извлечения и сообщения об ошибках

Выбранный диапазон

Имя файла E:\Up-Down\Thelonious Monk - The Complete Blue Note Recordings\CD3\Thelonious Monk - The Complete Blue Note Recordings (Disc 3).wav

Пиковый уровень 99.6 %
Качество диапазона 99.6 %
CRC копии 9D8EC0E5
Копирование... OK

Ошибок не произошло

AccurateRip: сводка

Трек 1 точное извлечение (доверие 21) [A40BA7CA]
Трек 2 точное извлечение (доверие 20) [DE3F2A2C]
Трек 3 точное извлечение (доверие 21) [267EBEE4]
Трек 4 точное извлечение (доверие 21) [EEB62290]
Трек 5 точное извлечение (доверие 21) [749C842A]
Трек 6 точное извлечение (доверие 20) [FED9B31F]
Трек 7 точное извлечение (доверие 21) [92DD5814]
Трек 8 точное извлечение (доверие 21) [68A0205F]
Трек 9 точное извлечение (доверие 21) [BCB361A3]
Трек 10 точное извлечение (доверие 21) [5BF5395C]
Трек 11 точность не определена (достоверность 21) [042195C9], AccurateRip вернул [4FAF7239]

0 трек(и) скопированы точно
1 трек(и) не удалось проверить на точность

Некоторые треки не прошли проверку на точность

Конец отчёта


1. Crepuscule With Nellie
2. Trinkle Tinkle
3. In Walked Bud
4. I Mean You
5. Epistrophy

EAC Log
Exact Audio Copy V0.99 prebeta 4 from 23. January 2008

Отчёт EAC об извлечении, выполненном 6. сентября 2009, 16:53

Thelonious Monk / The Complete Blue Note Recordings (Disc 4)

Дисковод: Optiarc DVD RW AD-7200A Adapter: 3 ID: 1

Режим чтения : Достоверность
Использование точного потока : Да
Отключение кэша аудио : Да
Использование указателей C2 : Нет

Коррекция смещения при чтении : 48
Способность читать области Lead-in и Lead-out : Нет
Заполнение пропущенных сэмплов тишиной : Да
Удаление блоков с тишиной в начале и конце : Нет
При вычислениях CRC использовались нулевые сэмплы : Да
Интерфейс : Установленный внешний ASPI-интерфейс

Выходной формат : Внутренние WAV-операции
Формат сэмплов : 44.100 Гц; 16 бит; стерео

TOC извлечённого CD

Трек | Старт | Длительность | Начальный сектор | Конечный сектор
---------------------------------------------------------------------
1 | 0:00.30 | 3:03.17 | 30 | 13771
2 | 3:03.47 | 10:10.28 | 13772 | 59549
3 | 13:14.00 | 11:22.24 | 59550 | 110723
4 | 24:36.24 | 13:55.74 | 110724 | 173422
5 | 38:32.23 | 5:19.26 | 173423 | 197373

Характеристики диапазона извлечения и сообщения об ошибках

Выбранный диапазон

Имя файла E:\Up-Down\Thelonious Monk - The Complete Blue Note Recordings\CD4\Thelonious Monk - The Complete Blue Note Recordings (Disc 4).wav

Пиковый уровень 95.5 %
Качество диапазона 99.9 %
CRC копии 9C670547
Копирование... OK

Ошибок не произошло

AccurateRip: сводка

Трек 1 точное извлечение (доверие 14) [44C91B13]
Трек 2 точное извлечение (доверие 14) [153DAD0E]
Трек 3 точность не определена (достоверность 14) [FADDFD92], AccurateRip вернул [F8B75748]
Трек 4 точное извлечение (доверие 15) [FD4BFC58]
Трек 5 точное извлечение (доверие 15) [F0C1B8AF]

4 трек(и) скопированы точно
1 трек(и) не удалось проверить на точность

Некоторые треки не прошли проверку на точность

Конец отчёта

Special thanks to strizh64!

Welcome to my blog for more wonderful music

PLEASE DO NOT PROVIDE MIRROR LINKS!

FILEPOST links
CD 1: 1 | 2 | 3
CD 2: 1 | 2 | 3
CD 3: 1 | 2 | 3
CD 4: 1 | 2
Artwork

DEPOSITFILES links

TURBOBIT linklist

BITSHARE linklist
ADVERTISING » Free Fast Download! « ADVERTISING


Posted By: diddlycrap Date: 25 May 2012 07:03:24
Thanks very much for a really top level post...
Posted By: chdx Date: 25 May 2012 08:16:02
Monk rules...

Thanks a 1000 times!
Posted By: fastantico Date: 26 May 2012 12:11:27
Thanks a lot!
Posted By: papalotleco Date: 27 May 2012 00:23:48
Greatest. Thanks for this.
Posted By: Filipito Date: 16 Jun 2012 11:06:23
What a post !!!!! Many, many thanks
Posted By: rudimentaal Date: 10 May 2014 09:18:51
laggard i am