Loading...

Gene Ammons - Brother Jug! (1970)

Posted By : intothe | Date : 09 Nov 2008 12:34:00 | Comments : 5 |
|



Gene Ammons - Brother Jug! (1970)
Jazz | EAC rip (FLAC, cue, log) | 534 MB | full artwork |
OJC (1990) | 33:45 | 20 bit remastered


LOG
EAC extraction logfile from 5. July 2010, 8:39

Gene Ammons / Brother Jug

Used drive : _NEC DVD_RW ND-3500AG Adapter: 0 ID: 0

Read mode : Secure
Utilize accurate stream : Yes
Defeat audio cache : Yes
Make use of C2 pointers : No

Read offset correction : 48
Overread into Lead-In and Lead-Out : No
Fill up missing offset samples with silence : Yes
Delete leading and trailing silent blocks : No
Null samples used in CRC calculations : Yes
Used interface : Native Win32 interface for Win NT & 2000

Used output format : User Defined Encoder
Selected bitrate : 768 kBit/s
Quality : High
Add ID3 tag : No
Command line compressor : C:\Program Files\Exact Audio Copy\FLAC\FLAC.EXE
Additional command line options : -6 -V -T "ARTIST=%a" -T "TITLE=%t" -T "ALBUM=%g" -T "DATE=%y" -T "TRACKNUMBER=%n" -T "GENRE=%m" -T "COMMENT=%e" %s -o %d


TOC of the extracted CD

Track | Start | Length | Start sector | End sector
---------------------------------------------------------
1 | 0:00.00 | 4:27.68 | 0 | 20092
2 | 4:27.68 | 6:05.19 | 20093 | 47486
3 | 10:33.12 | 5:05.73 | 47487 | 70434
4 | 15:39.10 | 5:12.13 | 70435 | 93847
5 | 20:51.23 | 4:06.53 | 93848 | 112350
6 | 24:58.01 | 8:47.30 | 112351 | 151905


Range status and errors

Selected range

Filename J:\eMusic\Rip\Gene Ammons - Brother Jug.wav

Peak level 100.0 %
Range quality 99.9 %
Test CRC D28B4631
Copy CRC D28B4631
Copy OK

No errors occurred


AccurateRip summary

Track 1 accurately ripped (confidence 1) [8F439407]
Track 2 accurately ripped (confidence 1) [21291B27]
Track 3 accurately ripped (confidence 1) [9A5D00D7]
Track 4 accurately ripped (confidence 1) [0D308E9B]
Track 5 accurately ripped (confidence 1) [EBDAF85A]
Track 6 accurately ripped (confidence 1) [907CD222]

All tracks accurately ripped

End of status report


A swinging soul-jazz set from just before the point where soul-jazz turned once and for all into fusion, 1970's Brother Jug is very much an album of its time.
(Note Billy Butler's funky-cheesy wah-wah guitar underpinning "Jungle Strut.") That said, while the album doesn't have the classic timelessness of Gene Ammons' best '50s and early-'60s work, Brother Jug is one of Ammons' better albums released soon after the tenor saxophonist's release from a seven-year prison sentence. Ammons' playing on this album has an unaccustomed grit; even on ballads like "Didn't We," there's an R&B-style honk to Ammons' tone that suits the funky, electric arrangements well. Brother Jug is not an all-time classic -- the closing take on "Son of a Preacher Man," with Sonny Phillips' in-your-face wah-wah organ, is hampered by a too-sluggish rhythm section and some unimaginative, braying solos by Ammons -- but even the weakest tunes have a certain historical interest. - by Stewart Mason, AMG

Tracks:
1. Son Of A Preacher Man (John Hurley/Ronnie Wilkins) 4:27
2. Didn't We (Jimmy Webb) 6:05
3. He's A Real Gone Guy (Nellie Lutcher) 5:05
4. Jungle Strut (Gene Ammons) 5:12
5. Blue Velvet (Lee Morris/Bernie Wayne) 4:06
6. Ger-ru (Gene Ammons) 8:46

Personnel:
Gene Ammons (Tenor Saxophone)
Sonny Phillips (Organ)
Bob Bushnell (Fender Bass)
Bernard Purdie (Drums)
Billy Butler (Guitar) - 1,4
Junior Mance (Piano) - 6
Buster Williams (Double Bass) - 6
Frankie Jones (Drums) - 6
Candido Camero (Conga) - 6
Prince James (Tenor Saxophone) - 6

Rapidshare:
Part 1 - Part 2
Hotfile:
Dlink
pw: into


ADVERTISING » Click here to download Ebooks/Magazines for free « ADVERTISING


Posted By: ngstar Date: 22 Jan 2009 05:01:58
thanks for share!!
check plz flac 1 file
Posted By: intothe Date: 26 Jan 2009 08:53:43
1st track's reposted: http://lix.in/-345f1f
Posted By: el3434 Date: 26 Jan 2009 09:43:37
Thank you!!!
Posted By: SuperFuzz Date: 03 Apr 2010 03:27:38
thanks for the jug!
Posted By: anahoret Date: 08 Jul 2010 20:13:31
Спасибо! Thank you!