Loading...

Richard Galliano - Solo (2007)

Posted By : jclane | Date : 28 Mar 2013 01:41:18 | Comments : 2 |
|



Richard Galliano - Solo (2007)
EAC Rip | APE Image + Cue + Log | 289 MB | Complete Scans | 26 MB
MP3 CBR @320 kbps (LAME 3.99) | Joint Stereo | 116 MB
Dreyfus Jazz | #: DM 46050 369032 | Jazz, World, Fusion

A very rare and special solo concert from one of the world's truly remarkable musicians, accordion virtuoso Richard Galliano.

Track Listing

01. Dum dum dum
02. Ballade pour Marion
03. French touch
04. Billie
05. Bebe
06. Il Cammino
07. Des voiliers
08. Taraf
09. Les forains

EAC Log

Exact Audio Copy V0.99 prebeta 5 from 4. May 2009

Отчёт EAC об извлечении, выполненном 4. ноября 2012, 17:42

Richard Galliano / Solo

Дисковод: Optiarc DVD RW AD-7200S Adapter: 3 ID: 0

Режим чтения : Достоверность
Использование точного потока : Да
Отключение кэша аудио : Да
Использование указателей C2 : Нет

Коррекция смещения при чтении : 48
Способность читать области Lead-in и Lead-out : Нет
Заполнение пропущенных сэмплов тишиной : Да
Удаление блоков с тишиной в начале и конце : Нет
При вычислениях CRC использовались нулевые сэмплы : Да
Интерфейс : Встроенный Win32-интерфейс для Win NT/2000

Выходной формат : Внутренние WAV-операции
Формат сэмплов : 44.100 Гц; 16 бит; стерео

TOC извлечённого CD

Трек | Старт | Длительность | Начальный сектор | Конечный сектор
---------------------------------------------------------------------
1 | 0:00.00 | 6:54.50 | 0 | 31099
2 | 6:54.50 | 5:19.22 | 31100 | 55046
3 | 12:13.72 | 3:21.18 | 55047 | 70139
4 | 15:35.15 | 5:32.67 | 70140 | 95106
5 | 21:08.07 | 4:38.05 | 95107 | 115961
6 | 25:46.12 | 5:42.33 | 115962 | 141644
7 | 31:28.45 | 5:12.30 | 141645 | 165074
8 | 36:41.00 | 6:25.50 | 165075 | 193999
9 | 43:06.50 | 6:17.39 | 194000 | 222313

Характеристики диапазона извлечения и сообщения об ошибках

Выбранный диапазон

Имя файла C:\Users\Bishop\Desktop\Richard Galliano - Solo\Richard Galliano - Solo.wav

Пиковый уровень 100.0 %
Качество диапазона 100.0 %
CRC теста F823F6F3
CRC копии F823F6F3
Копирование... OK

Ошибок не произошло

CUETools 2.1.4 Log

[CUETools log; Date: 26/03/2013 03:43:30 p.m.; Version: 2.1.4]
[AccurateRip ID: 0010a356-00797790-7b0b9409] found.
Track [ CRC | V2 ] Status
01 [7afd7d6b|e0b3ebfa] (0+0/8) No match
02 [af74d75b|32b60a42] (0+0/8) No match
03 [e44f31e4|9f9e23c5] (0+0/8) No match
04 [458c8d57|0860e072] (0+0/8) No match
05 [7a4676af|556d6d82] (0+0/8) No match
06 [007b0779|51ea9023] (0+0/8) No match
07 [ab52ef09|3332b072] (0+0/8) No match
08 [55f89275|9ba96626] (0+0/8) No match
09 [95e54ec1|52f2005a] (0+0/8) No match
Offsetted by 664:
01 [2e9d0087] (8/8) Accurately ripped
02 [20290d63] (8/8) Accurately ripped
03 [ec3656e9] (8/8) Accurately ripped
04 [86d04bcf] (8/8) Accurately ripped
05 [c82e73e6] (8/8) Accurately ripped
06 [4770754b] (8/8) Accurately ripped
07 [6ccf1e58] (8/8) Accurately ripped
08 [804360c3] (8/8) Accurately ripped
09 [28c99266] (8/8) Accurately ripped

Track Peak [ CRC32 ] [W/O NULL]
-- 100.0 [F823F6F3] [0B153998]
01 100.0 [2B3F23FC] [BFAEFB93]
02 100.0 [AC490AB1] [BE54281F]
03 100.0 [9A596C43] [CD354FA5]
04 100.0 [D79701B3] [895B6177]
05 100.0 [CA203205] [0CDC1799]
06 100.0 [2B7C413A] [7BAB2752]
07 100.0 [BB512AD4] [1875A05F]
08 100.0 [15748363] [1520096E]
09 100.0 [EFF77880] [2F9BB0F1]


Released Date: 2007
Format: CD, Album
Length: 49:23



******************************************************

CD Rip by Nebarmaley

The files are interchangeable!

ADVERTISING » Very Fast Download! « ADVERTISING


Posted By: Scorpion40 Date: 30 Mar 2013 13:11:09
Thanks / Gracias
Thankful for Depositfiles
Posted By: SwissCheese Date: 28 May 2013 08:18:43
This guy is a one-man band. Thank you for this excellent and very interesting post!