Loading...

Oscar Penas - From Now On (2011)

Posted By : tiburon | Date : 29 Mar 2012 19:10:43 | Comments : 2 |
|



Oscar Peñas - From Now On (2011)
EAC 1.0b2 | FLAC tracks level 8 | Cue+Log+M3U | Full Scans 600dpi | 401MB + 5% Recovery
Genre: Fusion

The music on From Now On is modern jazz marinated in the seductive flavors of Spain and South America. Guitarist Oscar Peñas' path lead him from Barcelona to Brooklyn, NY, and this geographic duality is ever-present in the intriguing blend of music that's presented on this, his debut for BJU records.

Track List
01. Continuum 10:00
02. Choro, No. 1 (Guainga) 4:51
03. From Now On 7:46
04. Samuel Smith 6:32
05. Encuentro 6:09
06. Choro, No. 2 (Corpo) 3:43
07. Julia 6:29
08. Adéu 1:40

musicians
Oscar Peñas - nylon string guitar, electirc guitar (1, 8)
Dan Blake - tenor saxophone, soprano saxophone (5)
Moto Fukushima - six string electric bass
Richie Barshay - drums, percussion, pandeiro (2)
Gil Goldstein - accordion (3, 7), piano (4)
Franco Pinna - bomba leduero (3)

Produced by Oscar Peñas & Zulema Mejías

EAC Logfile

Exact Audio Copy V1.0 beta 2 from 29. April 2011

EAC extraction logfile from 15. October 2011, 2:11

Oscar Penas / From Now On

Used drive : PLEXTOR DVDR PX-L890SA Adapter: 2 ID: 1

Read mode : Secure
Utilize accurate stream : Yes
Defeat audio cache : Yes
Make use of C2 pointers : No

Read offset correction : 6
Overread into Lead-In and Lead-Out : No
Fill up missing offset samples with silence : Yes
Delete leading and trailing silent blocks : No
Null samples used in CRC calculations : Yes
Used interface : Native Win32 interface for Win NT & 2000
Gap handling : Appended to previous track

Used output format : User Defined Encoder
Selected bitrate : 256 kBit/s
Quality : High
Add ID3 tag : No
Command line compressor : C:\Program Files (x86)\Exact Audio Copy\FLAC\FLAC.EXE
Additional command line options : -8 -V -T "ARTIST=%artist%" -T "TITLE=%title%" -T "ALBUM=%albumtitle%" -T "DATE=%year%" -T "TRACKNUMBER=%tracknr%" -T "TOTALTRACKS=%numtracks%" -T "GENRE=%genre%" -T "ALBUMARTIST=%albumartist%" -T "ALBUM ARTIST=%albumartist%


TOC of the extracted CD

Track | Start | Length | Start sector | End sector
---------------------------------------------------------
1 | 0:00.00 | 10:00.59 | 0 | 45058
2 | 10:00.59 | 4:51.19 | 45059 | 66902
3 | 14:52.03 | 7:46.69 | 66903 | 101921
4 | 22:38.72 | 6:32.20 | 101922 | 131341
5 | 29:11.17 | 6:09.58 | 131342 | 159074
6 | 35:21.00 | 3:42.74 | 159075 | 175798
7 | 39:03.74 | 6:29.05 | 175799 | 204978
8 | 45:33.04 | 1:40.19 | 204979 | 212497


Track 1

Filename F:\Flac Rips\01 - Continuum.wav

Pre-gap length 0:00:02.00

Peak level 96.6 %
Extraction speed 4.3 X
Track quality 100.0 %
Test CRC E99BFCD1
Copy CRC E99BFCD1
Track not present in AccurateRip database
Copy OK

Track 2

Filename F:\Flac Rips\02 - Choro#1 (Corpo).wav

Peak level 100.0 %
Extraction speed 4.7 X
Track quality 100.0 %
Test CRC 5D27300F
Copy CRC 5D27300F
Track not present in AccurateRip database
Copy OK

Track 3

Filename F:\Flac Rips\03 - From Now On.wav

Peak level 97.2 %
Extraction speed 5.4 X
Track quality 100.0 %
Test CRC 0055A1EE
Copy CRC 0055A1EE
Track not present in AccurateRip database
Copy OK

Track 4

Filename F:\Flac Rips\04 - Samuel Smith.wav

Peak level 96.5 %
Extraction speed 5.8 X
Track quality 100.0 %
Test CRC C71DE9C5
Copy CRC C71DE9C5
Track not present in AccurateRip database
Copy OK

Track 5

Filename F:\Flac Rips\05 - Encuentro.wav

Peak level 96.9 %
Extraction speed 6.2 X
Track quality 100.0 %
Test CRC B5F4023F
Copy CRC B5F4023F
Track not present in AccurateRip database
Copy OK

Track 6

Filename F:\Flac Rips\06 - Choro#2 (Corpo).wav

Peak level 97.1 %
Extraction speed 6.2 X
Track quality 100.0 %
Test CRC 0D6CDC2B
Copy CRC 0D6CDC2B
Track not present in AccurateRip database
Copy OK

Track 7

Filename F:\Flac Rips\07 - Julia.wav

Peak level 97.2 %
Extraction speed 5.9 X
Track quality 99.9 %
Test CRC 94AA2554
Copy CRC 94AA2554
Track not present in AccurateRip database
Copy OK

Track 8

Filename F:\Flac Rips\08 - Adeu.wav

Peak level 96.5 %
Extraction speed 3.6 X
Track quality 99.8 %
Test CRC 601251D6
Copy CRC 601251D6
Track not present in AccurateRip database
Copy OK


None of the tracks are present in the AccurateRip database

No errors occurred

End of status report

==== Log checksum BBE5EF438E29FB5A8887F0AC78E77A21928A019C8A469ACC8C1179123E1FCFF3 ====

Dynamic Range Analysis

--------------------------------------------------------------------------------
Analyzed: Oscar Penas / From Now On
--------------------------------------------------------------------------------

DR Peak RMS Duration Track
--------------------------------------------------------------------------------
DR11 -0.29 dB -14.25 dB 10:01 01-Continuum
DR11 0.00 dB -12.78 dB 4:51 02-Choro#1 (Corpo)
DR11 -0.24 dB -13.93 dB 7:47 03-From Now On
DR12 -0.31 dB -15.19 dB 6:32 04-Samuel Smith
DR11 -0.27 dB -13.73 dB 6:10 05-Encuentro
DR12 -0.25 dB -14.30 dB 3:43 06-Choro#2 (Corpo)
DR12 -0.24 dB -14.85 dB 6:29 07-Julia
DR11 -0.31 dB -15.08 dB 1:40 08-Adeu
--------------------------------------------------------------------------------

Number of tracks: 8
Official DR value: DR12

Samplerate: 44100 Hz
Channels: 2
Bits per sample: 16
Bitrate: 798 kbps
Codec: FLAC
================================================================================



Rip by jlgt

ADVERTISING » Free Fast Download! « ADVERTISING


Posted By: fastantico Date: 30 Mar 2012 08:51:01
Muchas gracias!
Posted By: nrwsps Date: 01 Jul 2012 02:52:43
Many Thanks.