Loading...

Niacin - Krush (2013)

Posted By : tiburon | Date : 11 May 2013 13:27:52 | Comments : 5 |
|



Niacin - Krush (2013)
EAC 1.0b3 | FLAC tracks level 8 | Cue+Log+M3U+MD5 | Full Scans 300dpi | 531MB + 5% Recovery
Genre: Fusion, Neo-Fusion, Jazz Rock

2013 release, the sixth album and the instrumental neo-fusion supergroup Niacin featuring legendary bassist Billy Sheehan (Mr. Big, Steve Vai, David Lee Roth), world-renowned drummer Dennis Chambers (Santana, Parliament/Funkadelic) and acclaimed keyboardist John Novello (Chick Corea, Ritchie Cole). Krush was recorded at Clear Lake Studios in North Hollywood (No Doubt, Black Veil Brides, Intronaut) with engineer Ara Sarkisian (Steel Panther) while being mixed and mastered by Dino Herrmann (Scorpions, Guns N' Roses, Meat Loaf).

Track List
01. Krush 4:19
02. Tone Wheels 4:39
03. Stormy Sunday 6:35
04. Low Art 4:24
05. Car Crash Red 4:12
06. Electrocity 4:20
07. Cold Fusion 6:41
08. Majestic Dance 4:48
09. Prelude & Funky Opus 7:04
10. The Gnarly Shuffle 4:04
11. Drifting 7:28
12. Sly Voltage 4:52
13. That's The One! 3:52
14. Triple Strength 6:05

musicians
Billy Sheehan - Yamaha basses
John Novello - B3, keyboards, acoustic piano
Dennis Chambers - Pearl drums

Produced by Niacin

EAC Logfile

Exact Audio Copy V1.0 beta 3 from 29. August 2011

EAC extraction logfile from 11. May 2013, 13:55

Niacin / Krush

Used drive : HL-DT-STDVDRAM GH20NS10 Adapter: 2 ID: 1

Read mode : Secure
Utilize accurate stream : Yes
Defeat audio cache : Yes
Make use of C2 pointers : No

Read offset correction : 667
Overread into Lead-In and Lead-Out : No
Fill up missing offset samples with silence : Yes
Delete leading and trailing silent blocks : No
Null samples used in CRC calculations : Yes
Used interface : Native Win32 interface for Win NT & 2000
Gap handling : Appended to previous track

Used output format : User Defined Encoder
Selected bitrate : 1024 kBit/s
Quality : High
Add ID3 tag : No
Command line compressor : C:\Program Files\Exact Audio Copy\Flac\flac.exe
Additional command line options : -8 -V -T "ARTIST=%artist%" -T "TITLE=%title%" -T "ALBUM=%albumtitle%" -T "DATE=%year%" -T "TRACKNUMBER=%tracknr%" -T "TOTALTRACKS=%numtracks%" -T "GENRE=%genre%" -T "ALBUMARTIST=%albumartist%" -T "ALBUM ARTIST=%albumartist%" -T "COMMENT=EAC Secure Mode, Test & Copy, AccurateRip, FLAC -8" %source%


TOC of the extracted CD

Track | Start | Length | Start sector | End sector
---------------------------------------------------------
1 | 0:00.00 | 4:18.63 | 0 | 19412
2 | 4:18.63 | 4:39.59 | 19413 | 40396
3 | 8:58.47 | 6:35.69 | 40397 | 70090
4 | 15:34.41 | 4:24.11 | 70091 | 89901
5 | 19:58.52 | 4:13.09 | 89902 | 108885
6 | 24:11.61 | 4:20.36 | 108886 | 128421
7 | 28:32.22 | 6:41.01 | 128422 | 158497
8 | 35:13.23 | 4:47.49 | 158498 | 180071
9 | 40:00.72 | 7:04.00 | 180072 | 211871
10 | 47:04.72 | 4:06.53 | 211872 | 230374
11 | 51:11.50 | 7:28.68 | 230375 | 264042
12 | 58:40.43 | 4:53.25 | 264043 | 286042
13 | 63:33.68 | 3:55.11 | 286043 | 303678
14 | 67:29.04 | 6:04.69 | 303679 | 331047


Track 1

Filename D:\Niacin - Krush (2013) [FLAC]\01 - Krush.wav

Pre-gap length 0:00:02.00

Peak level 96.6 %
Extraction speed 2.9 X
Track quality 100.0 %
Test CRC 97EC31BF
Copy CRC 97EC31BF
Track not present in AccurateRip database
Copy OK

Track 2

Filename D:\Niacin - Krush (2013) [FLAC]\02 - Tone Wheels.wav

Pre-gap length 0:00:00.22

Peak level 96.6 %
Extraction speed 3.2 X
Track quality 100.0 %
Test CRC 19EC3198
Copy CRC 19EC3198
Track not present in AccurateRip database
Copy OK

Track 3

Filename D:\Niacin - Krush (2013) [FLAC]\03 - Stormy Sunday.wav

Pre-gap length 0:00:00.74

Peak level 97.7 %
Extraction speed 3.7 X
Track quality 100.0 %
Test CRC 2EB4319D
Copy CRC 2EB4319D
Track not present in AccurateRip database
Copy OK

Track 4

Filename D:\Niacin - Krush (2013) [FLAC]\04 - Low Art.wav

Pre-gap length 0:00:01.05

Peak level 96.6 %
Extraction speed 3.8 X
Track quality 100.0 %
Test CRC 9BB2487E
Copy CRC 9BB2487E
Track not present in AccurateRip database
Copy OK

Track 5

Filename D:\Niacin - Krush (2013) [FLAC]\05 - Car Crash Red.wav

Pre-gap length 0:00:01.09

Peak level 97.7 %
Extraction speed 4.1 X
Track quality 100.0 %
Test CRC 9B098000
Copy CRC 9B098000
Track not present in AccurateRip database
Copy OK

Track 6

Filename D:\Niacin - Krush (2013) [FLAC]\06 - Electrocity.wav

Pre-gap length 0:00:00.42

Peak level 96.6 %
Extraction speed 4.2 X
Track quality 100.0 %
Test CRC 5DA6CA8F
Copy CRC 5DA6CA8F
Track not present in AccurateRip database
Copy OK

Track 7

Filename D:\Niacin - Krush (2013) [FLAC]\07 - Cold Fusion.wav

Pre-gap length 0:00:00.32

Peak level 97.7 %
Extraction speed 4.3 X
Track quality 99.9 %
Test CRC A5CD832B
Copy CRC A5CD832B
Track not present in AccurateRip database
Copy OK

Track 8

Filename D:\Niacin - Krush (2013) [FLAC]\08 - Majestic Dance.wav

Pre-gap length 0:00:00.52

Peak level 96.6 %
Extraction speed 4.8 X
Track quality 100.0 %
Test CRC 55FEE5D2
Copy CRC 55FEE5D2
Track not present in AccurateRip database
Copy OK

Track 9

Filename D:\Niacin - Krush (2013) [FLAC]\09 - Prelude & Funky Opus.wav

Pre-gap length 0:00:00.40

Peak level 96.6 %
Extraction speed 5.3 X
Track quality 100.0 %
Test CRC 222D5147
Copy CRC 222D5147
Track not present in AccurateRip database
Copy OK

Track 10

Filename D:\Niacin - Krush (2013) [FLAC]\10 - The Gnarly Shuffle.wav

Pre-gap length 0:00:00.29

Peak level 96.6 %
Extraction speed 5.2 X
Track quality 100.0 %
Test CRC 44FC6CA4
Copy CRC 44FC6CA4
Track not present in AccurateRip database
Copy OK

Track 11

Filename D:\Niacin - Krush (2013) [FLAC]\11 - Drifting.wav

Pre-gap length 0:00:00.37

Peak level 97.7 %
Extraction speed 5.6 X
Track quality 100.0 %
Test CRC 00B69726
Copy CRC 00B69726
Track not present in AccurateRip database
Copy OK

Track 12

Filename D:\Niacin - Krush (2013) [FLAC]\12 - Sly Voltage.wav

Pre-gap length 0:00:00.64

Peak level 97.7 %
Extraction speed 5.5 X
Track quality 100.0 %
Test CRC 52A38777
Copy CRC 52A38777
Track not present in AccurateRip database
Copy OK

Track 13

Filename D:\Niacin - Krush (2013) [FLAC]\13 - That's The One!.wav

Pre-gap length 0:00:00.38

Peak level 97.7 %
Extraction speed 5.4 X
Track quality 100.0 %
Test CRC 1B248C4E
Copy CRC 1B248C4E
Track not present in AccurateRip database
Copy OK

Track 14

Filename D:\Niacin - Krush (2013) [FLAC]\14 - Triple Strength.wav

Pre-gap length 0:00:00.36

Peak level 96.6 %
Extraction speed 5.6 X
Track quality 99.9 %
Test CRC 48C7C8CF
Copy CRC 48C7C8CF
Track not present in AccurateRip database
Copy OK


None of the tracks are present in the AccurateRip database

No errors occurred

End of status report

==== Log checksum 4873A7D6EE57A390DFF01EA168FD5D00CC347FA7AFAE2DA262D52935CC7C96EE ====

Dynamic Range Analysis

--------------------------------------------------------------------------------
Analyzed: Niacin / Krush
--------------------------------------------------------------------------------

DR Peak RMS Duration Track
--------------------------------------------------------------------------------
DR8 -0.30 dB -10.02 dB 4:19 01-Krush
DR9 -0.30 dB -10.73 dB 4:40 02-Tone Wheels
DR9 -0.20 dB -10.09 dB 6:36 03-Stormy Sunday
DR9 -0.30 dB -11.03 dB 4:24 04-Low Art
DR9 -0.20 dB -10.85 dB 4:13 05-Car Crash Red
DR9 -0.30 dB -11.58 dB 4:20 06-Electrocity
DR10 -0.20 dB -11.32 dB 6:41 07-Cold Fusion
DR9 -0.30 dB -10.55 dB 4:48 08-Majestic Dance
DR10 -0.30 dB -11.38 dB 7:04 09-Prelude & Funky Opus
DR9 -0.30 dB -10.11 dB 4:07 10-The Gnarly Shuffle
DR8 -0.20 dB -9.73 dB 7:29 11-Drifting
DR10 -0.20 dB -11.33 dB 4:53 12-Sly Voltage
DR11 -0.20 dB -13.02 dB 3:55 13-That's The One!
DR10 -0.30 dB -11.65 dB 6:05 14-Triple Strength
--------------------------------------------------------------------------------

Number of tracks: 14
Official DR value: DR9

Samplerate: 44100 Hz
Channels: 2
Bits per sample: 16
Bitrate: 988 kbps
Codec: FLAC
================================================================================



Rip by tiburon

ADVERTISING » Free Fast Download! « ADVERTISING


Posted By: jjp Date: 11 May 2013 13:48:38
I have recently bought this on cd- possibly their best yet! jjp
Posted By: methana Date: 11 May 2013 19:14:38
Una vez mas, muchas gracias por el aporte amigo tiburon.

Saludos desde Chile.
Posted By: elmelomano1 Date: 16 May 2013 21:19:00
Excelente post, gracias!
Posted By: slartiwoo Date: 19 May 2013 08:15:18
thanx - great album
Posted By: Antipop Date: 19 May 2013 10:45:23
Thanks for sharing.