Loading...

Dizzy Gillespie y Machito - Afro-Cuban Jazz Moods (1975, CD 1994)

Posted By : stfine | Date : 12 Sep 2010 16:34:41 | Comments : 2 |
|


Dizzy Gillespie y Machito - Afro-Cuban Jazz Moods (1975/1994)

Dizzy Gillespie y Machito - Afro-Cuban Jazz Moods (1975, CD 1994)
FLAC tracks+cue+log+scans | 00:32:11 | 224 MB (+3%)
Afro-Cuban Jazz/Bop | Label: Pablo / Original Jazz Classics (Germany), OJC20 447-2

Chico O'Farrill is a native Cuban who has been immersed in jazz since he came to this country in 1948 and wrote for Gillespie and Charlie Parker, among other prominent musicians. This 1975 reunion between O'Farrill and Gillespie involved performance of new music by the composer, played by Machito and his Orchestra. O'Farrill's writing and the fire and precision of the Machito group inspire some of Gillespie's most passionate soloing.

Tracklist

1. Oro, Incienso y Mirra [15:43]
2. Calidoscopio [05:12]
3. Pensativo [05:27]
4. Exuberante [05:49]

Total time 00:32:11

Recording Date: Jun 4-5, 1975.
Conductor and arranger - Chico O'Farrill.

EAC log
Отчёт EAC об извлечении, выполненном 14. мая 2007, 0:19 для диска:
Dizzy Gillespie Y Machito / Afro-Cuban Jazz Moods

Дисковод: TSSTcorpCD/DVDW SH-S182D Adapter: 1 ID: 0
Режим чтения: Достоверный (C2: нет, Точный поток: да, Отключение кэша: да)
Комбинированное смещение чтения/записи: 0
Способность читать области Lead-in и Lead-out : Нет

Выходной формат: Внутренние WAV-операции
44.100 Гц; 16 бит; стерео

Другие параметры:
Заполнение пропущенных сэмплов тишиной : Да
Удаление блоков с тишиной в начале и конце : Нет
Встроенный Win32-интерфейс для Win NT/2000


Трек 1
Имя файла D:\Music\jazz\G\Gillespie, Dizzy\01 - Oro, Incienso y Mirra.wav

Пиковый уровень 96.8 %
Качество трека 99.9 %
CRC теста A604A343
CRC копии A604A343
Копирование... OK

Трек 2
Имя файла D:\Music\jazz\G\Gillespie, Dizzy\02 - Calidoscopio.wav

Пиковый уровень 95.1 %
Качество трека 100.0 %
CRC теста D53CC852
CRC копии D53CC852
Копирование... OK

Трек 3
Имя файла D:\Music\jazz\G\Gillespie, Dizzy\03 - Pensativo.wav

Пиковый уровень 94.2 %
Качество трека 100.0 %
CRC теста 7102A937
CRC копии 7102A937
Копирование... OK

Трек 4
Имя файла D:\Music\jazz\G\Gillespie, Dizzy\04 - Exuberante.wav

Пиковый уровень 93.0 %
Качество трека 100.0 %
CRC теста AD8A9D94
CRC копии AD8A9D94
Копирование... OK

Ошибок не произошло


Конец отчёта


Many thanks to the original releaser (JanV)!

(filesonic.com)
Download part 1 | Download part 2

(uploaded.to)
Download part 1 | Download part 2

(letitbit.net)
Download part 1 | Download part 2



Enjoy my blog (Jazz, Rock, Latin, Oldies) >

ADVERTISING » Free Fast Download! « ADVERTISING


Posted By: musician3 Date: 12 Sep 2010 17:34:38
great......thank you
Posted By: OdioAlImperio Date: 13 Sep 2010 02:23:13
Thank you very much man, for this fabulous post... Kindly from Chile, OAI!