Loading...

Monty Sunshine's Jazz Band - Just A Little While To Stay Here (1996)

Posted By : PCWhizzkid | Date : 03 Jul 2011 11:08:36 | Comments : 4 |
|



Monty Sunshine's Jazz Band - Just A Little While To Stay Here (1996)
EAC V1.0 beta 1 | FLAC ( Secure Mode ) Image + Cue + Log - 320 MB
FULL SCANS - 8 MB (600dpi) | Recovery Record + 3%
Genre: Jazz / Trad Jazz | Label: Lake Records | Catalogue No: LACD 70
Wupload & Filesonic

Monty renews a couple of old acquaintances with special guests Ken Colyer, Lonnie Donegan, and Pete Sayers.


Personnel:

Ken Colyer (tp, voc)
Alan Gresty (tp)
Monty Sunshine (cl)
Eddie Blashfield (tb)
Barry Dew (bjo, voc)
Micky Ashman (bs)
Geoff Downs (dms)
John Beecham (tb)
Tony Bagot (bs)
Pete Sayers (gtr, voc)
Ron Brown (tb)



TRACK LIST:

1. Just a Little While to Stay Here [5:16]
2. Postman's Lament [6:25]
3. South [3:25]
4. Old Stag-o-lee Blues [2:57]
5. Ole Miss Rag [3:21]
6. My Old Kentucky Home [4:18]
7. Jambalaya [3:46]
8. Lily of the Valley [3:14]
9. You Always Hurt the One You Love [3:23]
10. Ma, He's Making Eyes at Me [2:26]
11. When I Move to the Sky [4:12]
12. Corinne, Corinna [3:12]
13. Black Cat On a Fence [3:01]
14. There's Yes Yes in Your Eyes [3:15]

Total Time: 52:11


EAC LOG
Exact Audio Copy V1.0 beta 1 from 15. November 2010

EAC extraction logfile from 28. June 2011, 12:53

Monty Sunshine / Just A Little While To Stay Here

Used drive : HL-DT-STDVDRAM GH22NS40 Adapter: 5 ID: 0

Read mode : Secure
Utilize accurate stream : Yes
Defeat audio cache : Yes
Make use of C2 pointers : No

Read offset correction : 667
Overread into Lead-In and Lead-Out : No
Fill up missing offset samples with silence : Yes
Delete leading and trailing silent blocks : No
Null samples used in CRC calculations : Yes
Used interface : Native Win32 interface for Win NT & 2000

Used output format : User Defined Encoder
Selected bitrate : 1024 kBit/s
Quality : High
Add ID3 tag : No
Command line compressor : C:\Program Files (x86)\Exact Audio Copy\FLAC\FLAC.EXE
Additional command line options : -6 -V -T "ARTIST=%a" -T "TITLE=%t" -T "ALBUM=%g" -T "DATE=%y" -T "TRACKNUMBER=%n" -T "GENRE=%m" -T "COMMENT=%e" %j--picture="%i"%j %s -o %d


TOC of the extracted CD

Track | Start | Length | Start sector | End sector
---------------------------------------------------------
1 | 0:00.00 | 5:19.25 | 0 | 23949
2 | 5:19.25 | 6:25.70 | 23950 | 52894
3 | 11:45.20 | 3:25.10 | 52895 | 68279
4 | 15:10.30 | 2:57.42 | 68280 | 81596
5 | 18:07.72 | 3:21.20 | 81597 | 96691
6 | 21:29.17 | 4:18.70 | 96692 | 116111
7 | 25:48.12 | 3:46.73 | 116112 | 133134
8 | 29:35.10 | 3:14.72 | 133135 | 147756
9 | 32:50.07 | 3:23.03 | 147757 | 162984
10 | 36:13.10 | 2:26.40 | 162985 | 173974
11 | 38:39.50 | 4:12.17 | 173975 | 192891
12 | 42:51.67 | 3:12.00 | 192892 | 207291
13 | 46:03.67 | 3:01.70 | 207292 | 220936
14 | 49:05.62 | 3:13.25 | 220937 | 235436


Range status and errors

Selected range

Filename T:\Monty Sunshine - Just A Little While To Stay Here.wav

Copy aborted

End of status report

==== Log checksum 3A3A015B3D9C52B524BF8E1437EA8C2409A8718EA467ABA9C042851594A7DCB3 ====

------------------------------------------------------------

Exact Audio Copy V1.0 beta 1 from 15. November 2010

EAC extraction logfile from 28. June 2011, 13:31

Monty Sunshine / Just A Little While To Stay Here

Used drive : HL-DT-STDVDRAM GH22NS40 Adapter: 5 ID: 0

Read mode : Secure
Utilize accurate stream : Yes
Defeat audio cache : Yes
Make use of C2 pointers : No

Read offset correction : 667
Overread into Lead-In and Lead-Out : No
Fill up missing offset samples with silence : Yes
Delete leading and trailing silent blocks : No
Null samples used in CRC calculations : Yes
Used interface : Native Win32 interface for Win NT & 2000

Used output format : User Defined Encoder
Selected bitrate : 1024 kBit/s
Quality : High
Add ID3 tag : No
Command line compressor : C:\Program Files (x86)\Exact Audio Copy\FLAC\FLAC.EXE
Additional command line options : -6 -V -T "ARTIST=%a" -T "TITLE=%t" -T "ALBUM=%g" -T "DATE=%y" -T "TRACKNUMBER=%n" -T "GENRE=%m" -T "COMMENT=%e" %j--picture="%i"%j %s -o %d


TOC of the extracted CD

Track | Start | Length | Start sector | End sector
---------------------------------------------------------
1 | 0:00.00 | 5:19.25 | 0 | 23949
2 | 5:19.25 | 6:25.70 | 23950 | 52894
3 | 11:45.20 | 3:25.10 | 52895 | 68279
4 | 15:10.30 | 2:57.42 | 68280 | 81596
5 | 18:07.72 | 3:21.20 | 81597 | 96691
6 | 21:29.17 | 4:18.70 | 96692 | 116111
7 | 25:48.12 | 3:46.73 | 116112 | 133134
8 | 29:35.10 | 3:14.72 | 133135 | 147756
9 | 32:50.07 | 3:23.03 | 147757 | 162984
10 | 36:13.10 | 2:26.40 | 162985 | 173974
11 | 38:39.50 | 4:12.17 | 173975 | 192891
12 | 42:51.67 | 3:12.00 | 192892 | 207291
13 | 46:03.67 | 3:01.70 | 207292 | 220936
14 | 49:05.62 | 3:13.25 | 220937 | 235436


Range status and errors

Selected range

Filename T:\Monty Sunshine - Just A Little While To Stay Here.wav

Peak level 100.0 %
Extraction speed 0.1 X
Range quality 100.0 %
Copy CRC 99D46CEF
Copy OK

No errors occurred


AccurateRip summary

Track 1 not present in database
Track 2 not present in database
Track 3 not present in database
Track 4 not present in database
Track 5 not present in database
Track 6 not present in database
Track 7 not present in database
Track 8 not present in database
Track 9 not present in database
Track 10 not present in database
Track 11 not present in database
Track 12 not present in database
Track 13 not present in database
Track 14 not present in database

None of the tracks are present in the AccurateRip database

End of status report

==== Log checksum 9BA84D3A7FF068492765FE7FF8DF2CC12534944F87E4BC1A2114445D381FF0C7 ====








ADVERTISING » Free Fast Download! « ADVERTISING


Posted By: jazzuk Date: 03 Jul 2011 16:13:22
Thanks for Monty...a great trad stalwart.
Posted By: PCWhizzkid Date: 03 Jul 2011 22:28:04
Yes , and I must dig out some more trad

Perhaps a Pete Fountain next time
Posted By: fatz Date: 04 Jul 2011 00:16:05
Thanks Kid ;-)
Posted By: muttly Date: 15 Jul 2011 15:07:41
Great stuff, thank you