Loading...

Chet Baker - Baker's Holiday (1965) [SACD 2004]

Posted By : plonker | Date : 21 Jan 2010 23:23:23 | Comments : 4 |
|



Chet Baker - Baker's Holiday (1965) [2004 SACD]
West Coast Jazz | EAC rip | WavPack: IMG+CUE+EAC/log -> 218 MB | mp3@VBR V0 (230kbps) -> 61 MB
32:08 min | scans 600dpi | RAR inc. 3% recovery | FF & DF | Verve B0003279-16 SACD [CD layer only]

AMG review by Scott Yanow:

Baker's Holiday finds Chet Baker effectively paying tribute to Billie Holiday with mellow trumpet solos and occasional vocals. Baker is backed by a full sax section and a four-piece rhythm section that includes pianist Hank Jones; Jimmy Mundy contributed the colorful arrangements. His performance of ten songs associated with Lady Day (most of which he had not recorded previously) is often exquisite. [Verve/Hybrid reissued Baker's Holiday: Plays & Sings Billie Holiday in 2004 and shortened the title.]

Release date: May 1965

Tracklist:
01 Travelin' Light (03:09)
02 Easy Living (03:21)
03 That Ole Devil Called Love (03:16)
04 You're My Thrill (02:58)
05 Crazy She Calls Me (03:20)
06 When Your Lover Has Gone (02:55)
07 Mean To Me (03:36)
08 These Foolish Things (Remind Me Of You) (03:31)
09 There Is No Greater Love (02:34)
10 Don't Explain (03:27)

EAC log
Exact Audio Copy V0.99 prebeta 5 from 4. May 2009

EAC extraction logfile from 17. November 2009, 13:01

Chet Baker / Baker's Holiday

Used drive : PIONEER DVD-RW DVR-K16D Adapter: 1 ID: 0

Read mode : Secure
Utilize accurate stream : Yes
Defeat audio cache : Yes
Make use of C2 pointers : No

Read offset correction : 48
Overread into Lead-In and Lead-Out : No
Fill up missing offset samples with silence : Yes
Delete leading and trailing silent blocks : No
Null samples used in CRC calculations : Yes
Used interface : Native Win32 interface for Win NT & 2000

Used output format : Internal WAV Routines
Sample format : 44.100 Hz; 16 Bit; Stereo


TOC of the extracted CD

Track | Start | Length | Start sector | End sector
---------------------------------------------------------
1 | 0:00.00 | 3:08.52 | 0 | 14151
2 | 3:08.52 | 3:21.10 | 14152 | 29236
3 | 6:29.62 | 3:16.23 | 29237 | 43959
4 | 9:46.10 | 2:58.17 | 43960 | 57326
5 | 12:44.27 | 3:20.30 | 57327 | 72356
6 | 16:04.57 | 2:54.48 | 72357 | 85454
7 | 18:59.30 | 3:35.40 | 85455 | 101619
8 | 22:34.70 | 3:30.65 | 101620 | 117434
9 | 26:05.60 | 2:34.15 | 117435 | 128999
10 | 28:40.00 | 3:27.15 | 129000 | 144539


Range status and errors

Selected range

Filename D:\Chet Baker - Baker's Holiday.wav

Peak level 100.0 %
Range quality 100.0 %
Test CRC D0757285
Copy CRC D0757285
Copy OK

No errors occurred


AccurateRip summary

Track 1 accurately ripped (confidence 4) [C6140BE2]
Track 2 accurately ripped (confidence 5) [4D07B5B3]
Track 3 accurately ripped (confidence 5) [ED5A3C88]
Track 4 accurately ripped (confidence 5) [7D6801ED]
Track 5 accurately ripped (confidence 5) [840238A4]
Track 6 accurately ripped (confidence 5) [F7E5FAB7]
Track 7 accurately ripped (confidence 5) [B142EE1C]
Track 8 accurately ripped (confidence 5) [00614CA8]
Track 9 accurately ripped (confidence 5) [A284CA3D]
Track 10 accurately ripped (confidence 4) [A136F09A]

All tracks accurately ripped

End of status report



************ download ************

FileFactory folder

http://www.filefactory.com/f/90d5ed6a885d2641/

DepositFiles


password (if needed): avax
ADVERTISING » Free Fast Download! « ADVERTISING


Posted By: Alsu Date: 22 Jan 2010 06:16:57
Thank you for the nice post!
Posted By: intothe Date: 22 Jan 2010 07:20:29
Many thanks for sharing.
Posted By: VAUVAU Date: 29 Jan 2010 07:39:26
Thanks! Nice album! Voice is super!
Posted By: skin7j Date: 07 Aug 2011 15:56:31
Thanks for sharing!