Loading...

Bobby Hutcherson - The Kicker (1963) {1999 Blue Note 24-bit Remaster} [Repost]

Posted By : ruskaval | Date : 26 Feb 2011 16:52:21 | Comments : 5 |
|



Bobby Hutcherson - The Kicker (1963) {1999 Blue Note 24-bit Remaster}
EAC rip (secure mode) | FLAC+CUE+LOG -> 342 Mb
Full Artwork @ 300 dpi (jpg) -> 8 Mb
© 1999 Blue Note / Capitol | 7243 5 21437 2 6 | 24-bit Remaster | SBM
Jazz / Hard Bop / Vibraphone

Bobby Hutcherson recorded frequently for Blue Note in the 1960s, though this session remained unissued until 1999. The first half features the vibraphonist in a cooking hard bop session with Joe Henderson and Duke Pearson, starting with an energetic take on the normally slow ballad "If Ever I Would Leave You" and a sizzling Hutcherson original, "For Duke P." Guitarist Grant Green is added for the second half, beginning with the first recording of Henderson's "The Kicker," which became well known from it's later rendition on Horace Silver's highly successful release Song for My Father. Because this is part of Blue Note's limited-edition Jazz Connoisseur series, don't delay in picking it up.

Personnel: Bobby Hutcherson (vibraphone); Joe Henderson (tenor saxophone); Duke Pearson (piano); Grant Green (guitar); Bob Cranshaw (bass); Al Harewood (drums).

tracklist:
1. If Ever I Would Leave You
2. Mirrors
3. For Duke P.
4. The Kicker
5. Step Lightly
6. Bedouin



EAC log
Exact Audio Copy V0.99 prebeta 5 from 4. May 2009

EAC extraction logfile from 26. February 2011, 1:17

Bobby Hutcherson / The Kicker

Used drive : TSSTcorpCD/DVDW TS-H552L Adapter: 2 ID: 0

Read mode : Secure
Utilize accurate stream : Yes
Defeat audio cache : Yes
Make use of C2 pointers : No

Read offset correction : 6
Overread into Lead-In and Lead-Out : No
Fill up missing offset samples with silence : Yes
Delete leading and trailing silent blocks : No
Null samples used in CRC calculations : Yes
Used interface : Installed external ASPI interface
Gap handling : Appended to previous track

Used output format : User Defined Encoder
Selected bitrate : 1024 kBit/s
Quality : High
Add ID3 tag : No
Command line compressor : C:\Program Files\FLAC\flac.exe
Additional command line options : -5 -V -T "ARTIST=%a" -T "TITLE=%t" -T "ALBUM=%g" -T "DATE=%y" -T "TRACKNUMBER=%n" -T "TOTALTRACKS=%x" -T "GENRE=%m" -T "ALBUMARTIST=%v" -T "ALBUM ARTIST=%v" -T "COMMENT=EAC Secure Mode, Test & Copy, AccurateRip, FLAC -5" %s


TOC of the extracted CD

Track | Start | Length | Start sector | End sector
---------------------------------------------------------
1 | 0:00.00 | 10:33.67 | 0 | 47541
2 | 10:33.67 | 6:52.70 | 47542 | 78511
3 | 17:26.62 | 7:54.33 | 78512 | 114094
4 | 25:21.20 | 6:07.27 | 114095 | 141646
5 | 31:28.47 | 14:18.65 | 141647 | 206061
6 | 45:47.37 | 8:11.35 | 206062 | 242921


Track 1

Filename D:\EAC\Bobby Hutcherson - The Kicker (1963) {1999 Blue Note 24-bit Remaster}\01 - If Ever I Would Leave You.wav

Pre-gap length 0:00:02.00

Peak level 94.6 %
Track quality 99.9 %
Test CRC D16E10D1
Copy CRC D16E10D1
Accurately ripped (confidence 11) [FD7BD0C7]
Copy OK

Track 2

Filename D:\EAC\Bobby Hutcherson - The Kicker (1963) {1999 Blue Note 24-bit Remaster}\02 - Mirrors.wav

Pre-gap length 0:00:01.13

Peak level 67.0 %
Track quality 100.0 %
Test CRC 05A62729
Copy CRC 05A62729
Accurately ripped (confidence 11) [101C4C96]
Copy OK

Track 3

Filename D:\EAC\Bobby Hutcherson - The Kicker (1963) {1999 Blue Note 24-bit Remaster}\03 - For Duke P..wav

Peak level 92.6 %
Track quality 100.0 %
Test CRC 54D8FECE
Copy CRC 54D8FECE
Accurately ripped (confidence 11) [509F0A0C]
Copy OK

Track 4

Filename D:\EAC\Bobby Hutcherson - The Kicker (1963) {1999 Blue Note 24-bit Remaster}\04 - The Kicker.wav

Pre-gap length 0:00:01.10

Peak level 92.2 %
Track quality 100.0 %
Test CRC A8E2BF2B
Copy CRC A8E2BF2B
Accurately ripped (confidence 11) [4A51EB39]
Copy OK

Track 5

Filename D:\EAC\Bobby Hutcherson - The Kicker (1963) {1999 Blue Note 24-bit Remaster}\05 - Step Lightly.wav

Pre-gap length 0:00:01.40

Peak level 87.8 %
Track quality 100.0 %
Test CRC 0B784861
Copy CRC 0B784861
Accurately ripped (confidence 11) [87B866FD]
Copy OK

Track 6

Filename D:\EAC\Bobby Hutcherson - The Kicker (1963) {1999 Blue Note 24-bit Remaster}\06 - Bedouin.wav

Peak level 92.8 %
Track quality 99.9 %
Test CRC E5534CE3
Copy CRC E5534CE3
Accurately ripped (confidence 11) [E3173052]
Copy OK


All tracks accurately ripped

No errors occurred

End of status report

FSonic Linkz

or

FileServe Linkz

p.s. the files are interchangeable...

No Mirror, plz!

ADVERTISING » Free Fast Download! « ADVERTISING


Posted By: clx81 Date: 26 Feb 2011 17:17:57
Is it possible to post also in Hotfile, Fileserve and Filesonic are blocked by ISP in our counter !

Thank for your nice post !
Posted By: tonki Date: 26 Feb 2011 17:30:39
Thank you!
Posted By: Nick Cave Date: 26 Feb 2011 17:31:01
Tremendo Album de Hutcherson ruskaval, Muchas Gracias !!
Posted By: LezDawson Date: 27 Feb 2011 14:19:51
A Ron McMaster remaster, so we know it should sound pretty good. Thanks
Posted By: Candido Date: 21 Apr 2011 16:38:44
Sorry!
No links to download.
Could you reupload this Disc?
Thanks.