Loading...

Buddy Rich Big Band - Live at Ronnie Scott's (1980)

Posted By : PCWhizzkid | Date : 30 Mar 2011 02:07:11 | Comments : 8 |
|



Buddy Rich Big Band - Live at Ronnie Scott's (1980)
EAC | FLAC+CUE+LOG - 269 MB | SCANS - 14 MB (600dpi)
Genre: Jazz / Big Band | Label: DRG | Catalogue No: 91427

I was at Ronnie Scotts when this was recorded live in London, England on March 21 & 22, 1980.In fact I was sitting about 8 feet away from the stage - It was and still is one of the best concerts I have ever heard.The total wall of sound was mind blowing.This is indeed a treasured CD that reminds me of a great night everytime I play it.

Personnel:
Buddy Rich (drums); Steve Marcus (soprano & tenor saxophones); Andy Fusco, Jack Leibowitz (alto saxophone); Kenny Hitchcock (tenor saxophone); Bob Mintzer (baritone saxophone); Bob Coassin, Simo Salimen, Bob Doll, Mike Plumleigh (trumpet); Roger Homefield, Glenn Franke (trombone); Pete Beltran (bass trombone); Ernie Vantrease (piano); Wayne Pedziwiatr (bass).



TRACK LIST:

1. Beulah Witch
2. Grand Concourse
3. Blues A La 88 (Ernie's Blues)
4. Saturday Night
5. Slow Funk
6. Good News


EAC LOG
Exact Audio Copy V1.0 beta 1 from 15. November 2010

EAC extraction logfile from 28. March 2011, 14:05

Buddy Rich Big Band / Live at Ronnie Scott's

Used drive : HL-DT-STDVDRAM GH22NS40 Adapter: 5 ID: 0

Read mode : Secure
Utilize accurate stream : Yes
Defeat audio cache : Yes
Make use of C2 pointers : No

Read offset correction : 667
Overread into Lead-In and Lead-Out : No
Fill up missing offset samples with silence : Yes
Delete leading and trailing silent blocks : No
Null samples used in CRC calculations : Yes
Used interface : Native Win32 interface for Win NT & 2000

Used output format : User Defined Encoder
Selected bitrate : 768 kBit/s
Quality : High
Add ID3 tag : No
Command line compressor : C:\Program Files (x86)\Exact Audio Copy\FLAC\FLAC.EXE
Additional command line options : -6 -V -T "ARTIST=%a" -T "TITLE=%t" -T "ALBUM=%g" -T "DATE=%y" -T "TRACKNUMBER=%n" -T "GENRE=%m" -T "COMMENT=%e" %j--picture="%i"%j %s -o %d


TOC of the extracted CD

Track | Start | Length | Start sector | End sector
---------------------------------------------------------
1 | 0:00.32 | 4:37.18 | 32 | 20824
2 | 4:37.50 | 6:54.65 | 20825 | 51939
3 | 11:32.40 | 6:18.17 | 51940 | 80306
4 | 17:50.57 | 5:28.48 | 80307 | 104954
5 | 23:19.30 | 5:43.27 | 104955 | 130706
6 | 29:02.57 | 15:34.65 | 130707 | 200821


Range status and errors

Selected range

Filename T:\Buddy Rich Big Band - Live at Ronnie Scott's.wav

Peak level 92.7 %
Extraction speed 0.1 X
Range quality 100.0 %
Test CRC 91D89006
Copy CRC 91D89006
Copy OK

No errors occurred


AccurateRip summary

Track 1 not present in database
Track 2 not present in database
Track 3 not present in database
Track 4 not present in database
Track 5 not present in database
Track 6 not present in database

None of the tracks are present in the AccurateRip database

End of status report

==== Log checksum 5D7D1EADE77CC92B4EF5046CA9017BA6BB7991FA939CC433A424BE5E11420184 ====




This is an original Rip & Scan by me

Please Do Not Steal My Posts For Use On Other Sites


FILESONIC Links

http://www.filesonic.com/file/401575311/BRBBLARS.part1.rar
http://www.filesonic.com/file/401717551/BRBBLARS.part2.rar

Please No Mirrors


ADVERTISING » Free Fast Download! « ADVERTISING


Posted By: bhupihupi Date: 30 Mar 2011 02:19:22
I love me some buddy rich...Thanks!!
Posted By: musician3 Date: 30 Mar 2011 12:20:53
Great Thank You
Posted By: grafassi Date: 30 Mar 2011 12:34:03
Are those your words, PC, about being at Ronnie Scott's? I saw Buddy in a little town in northwest Arkansas; I think it was in like a high school gym. Thanks for more Rich.
Posted By: PCWhizzkid Date: 30 Mar 2011 18:41:53
Yes I was actually there on the 2nd night of recording - will never forget it

Managed to see

Buddy Rich 3 times

Maynard Ferguson twice

Woody herman only once
Posted By: Tonebender Date: 30 Mar 2011 21:59:33
Thanks very muchly for this...looking forward to it :D
Posted By: hugson Date: 30 Mar 2011 23:48:44
I was also there for the same concert and was initially seated in the front row nearest the drummer! A different group played in the 1st half (can't remember who) and the percussion was so loud I that I asked to move back a bit and was lucky enough to get 2 seats about 6 rows back. My hearing thanks God that I didn't have to remain in that front row! Can you still hear anything?

I saw Buddy 3 times (a fantastic concert at the Northsea Jazz Festival in Holland, a very dull performace in the Festival Hall in London, and this concert at Ronnie Scott's). And my favourite of all is Oscar Peterson, whom I saw around a dozen times.
Posted By: PCWhizzkid Date: 31 Mar 2011 00:01:28
LOL.yes it was a bit loud ( I think my left ear is still numb )- although not as loud as the Maynard Concert @ the same venue

I also think Buddy did a rather lack lustre performance in Wales ( must have been around '86 / '87 )I think the venue put him in a bad mood to start with.Although Steve Marcus on Tenor was on absolute fire. ( as always )
Posted By: klakadak Date: 12 Sep 2011 02:35:42
This is the one I was looking for! Thank you very much!