Loading...

Bluesiana Triangle - Bluesiana II (1991)

Posted By : countryfreak | Date : 18 Oct 2010 05:53:35 | Comments : 2 |
|



Bluesiana Triangle - Bluesiana II (1991)
EAC Rip | FLAC (Image) + CUE + LOG | 343 MB | + Covers
Genre: Jazz/Crossover Jazz/Jazz Blues | Label: Windham Hill | Catalog Number: 10133-2 | Release Date: 1991 | RAR 5% Rec. | RS.com + HF.com + FS.com

Previously, Windham Hill Records released Bluesiana Triangle, a jazz trio album by drummer Art Blakey, pianist Dr. John, and reed man David "Fathead" Newman. Blakey passed away in 1990, but in the spring of 1991, Dr. John and Newman organized this second Bluesiana session, featuring trombonist Ray Anderson, drummer Will Calhoun, bassists Essiet Okon Essiet and Jay Leonhart (on different tracks), and percussionist Joe Bonadio. The resulting music again justifies the name, blues played in a funky Louisiana style with plenty of room for extended jazzy soloing. Though much of the material was written by Dr. John and he does sing occasionally, this is not a conventional Dr. John vocal album. It does contain some excellent playing, however.


-----------------
Tracklist
-----------------

1. Fonkalishus 5:58
2. Doctor Blooze 3:33
3. Cowan Woman 6:50
4. For Art's Sake 8:13
5. Skoshuss 5:19
6. Love's Parody 3:30
7. Santa Rosalia 5:32
8. San Antone 4:30
9. Montana Banana 5:29
10. Tribute to Art 6:52

Personnel:
Dr.John - Piano,Organ,Guitar,Vocals
Will Calhoun - Drums
Ray Anderson - Trombone
David "Fathead" Newman - Sax,Flute
Essiet Okon Essiet - Bass
Jay Leonhart - Bass
Joe Bonadio - Percussion


Flac Download RS.com

Part 1|Part 2|Part 3|Part 4

Flac Download HF.com

Part 1|Part 2|Part 3|Part 4

Flac Download FS.com

Part 1|Part 2|Part 3|Part 4

The files are interchangeable!

***** Pass: avaxhome *****

EAC LOG
Exact Audio Copy V0.99 prebeta 5 from 4. May 2009

EAC extraction logfile from 7. October 2010, 9:14

Bluesiana Triangle / Bluesiana II

Used drive : ASUS DRW-24B1LT Adapter: 3 ID: 0

Read mode : Secure
Utilize accurate stream : Yes
Defeat audio cache : Yes
Make use of C2 pointers : No

Read offset correction : 6
Overread into Lead-In and Lead-Out : No
Fill up missing offset samples with silence : Yes
Delete leading and trailing silent blocks : No
Null samples used in CRC calculations : Yes
Used interface : Native Win32 interface for Win NT & 2000

Used output format : User Defined Encoder
Selected bitrate : 1024 kBit/s
Quality : High
Add ID3 tag : No
Command line compressor : C:\Program Files\Exact Audio Copy\FLAC\FLAC.EXE
Additional command line options : -6 -V -T "ARTIST=%a" -T "TITLE=%t" -T "ALBUM=%g" -T "DATE=%y" -T "TRACKNUMBER=%n" -T "GENRE=%m" -T "COMMENT=%e" %s -o %d


TOC of the extracted CD

Track | Start | Length | Start sector | End sector
---------------------------------------------------------
1 | 0:00.00 | 5:58.25 | 0 | 26874
2 | 5:58.25 | 3:33.38 | 26875 | 42887
3 | 9:31.63 | 6:50.67 | 42888 | 73704
4 | 16:22.55 | 8:13.18 | 73705 | 110697
5 | 24:35.73 | 5:19.20 | 110698 | 134642
6 | 29:55.18 | 3:30.20 | 134643 | 150412
7 | 33:25.38 | 5:32.45 | 150413 | 175357
8 | 38:58.08 | 4:30.32 | 175358 | 195639
9 | 43:28.40 | 5:29.55 | 195640 | 220369
10 | 48:58.20 | 6:52.05 | 220370 | 251274


Range status and errors

Selected range

Filename D:\MUSIK\Bluesiana Triangle - Bluesiana II [FLA] (1991)\Bluesiana Triangle - Bluesiana II.wav

Peak level 99.8 %
Range quality 100.0 %
Copy CRC 2734888D
Copy OK

No errors occurred


AccurateRip summary

Track 1 cannot be verified as accurate (confidence 18) [BE773299], AccurateRip returned [AD1FB1E5]
Track 2 cannot be verified as accurate (confidence 18) [5311E6DF], AccurateRip returned [B9544853]
Track 3 cannot be verified as accurate (confidence 18) [F7A9788F], AccurateRip returned [7F4C4D01]
Track 4 cannot be verified as accurate (confidence 18) [6C321EB6], AccurateRip returned [9C58FFA0]
Track 5 cannot be verified as accurate (confidence 18) [959D4F36], AccurateRip returned [06AC4D74]
Track 6 cannot be verified as accurate (confidence 18) [300A00AC], AccurateRip returned [8066E978]
Track 7 cannot be verified as accurate (confidence 18) [9DAACEA5], AccurateRip returned [63CB0A99]
Track 8 cannot be verified as accurate (confidence 18) [D92CF1A7], AccurateRip returned [7B239633]
Track 9 cannot be verified as accurate (confidence 17) [31180D71], AccurateRip returned [36F6FAFD]
Track 10 cannot be verified as accurate (confidence 16) [894D9BB0], AccurateRip returned [CD178DCC]

No tracks could be verified as accurate
You may have a different pressing from the one(s) in the database

End of status report


In case you encounter dead links in any of my posts, please send me a private message !!!!

NO mirrors and/or direct links in your comments, please !!!!

****Visit My Blog****


Bluesiana Triangle - Bluesiana (1990)

ADVERTISING » Free Fast Download! « ADVERTISING


Posted By: wersollsschonsein Date: 18 Oct 2010 06:20:31
Cheers from Ireland & I missed You.
Posted By: Sadream Date: 18 Oct 2010 08:18:24
Extra special Thank You for this one!