Loading...

Tord Gustavsen Quartet - The Well (2012) {ECM 2237}

Posted By : tiburon | Date : 08 Mar 2012 15:49:17 | Comments : 5 |
|



Tord Gustavsen Quartet - The Well (2012) {ECM 2237}
EAC 1.0b2 | FLAC tracks level 8 | Cue+Log+M3U | Full Scans 600dpi | 292MB + 5% Recovery
Genre: Jazz

Two years after “Restored, Returned” introduced this line-up and with extensive touring behind them, on “The Well” the four musicians of the Gustavsen Quartet really blossom as a band in a programme of new tunes by Tord. Sax player Tore Brunborg is given an important voice here, his melodic lines combining bluesy sonority and Nordic cry. Gently but effectively propelled by the subtle pulses of drummer Jarle Vespestad and bassist Mats Eilertsen, Gustavsen’s gospel-tinged, unhurried piano playing displays a characteristic warmth and tenderness.

Track List
01. Prelude 2:48
02. Playing 5:35
03. Suite 8:19
04. Communion 4:33
05. Circling 4:39
06. Glasgow Intro 1:13
07. On Every Corner 5:12
08. The Well 5:48
09. Communion, var. 5:54
10. Intuition 4:31
11. Inside 4:16

musicians
Tord Gustavsen - piano
Tore Brunborg - tenor saxophone
Tord Gustavsen - piano
Mats Eilertsen - double bass
Jarle Vespestad - drums

Produced by Manfred Eicher

EAC Logfile

Exact Audio Copy V1.0 beta 2 from 29. April 2011

EAC extraction logfile from 2. March 2012, 20:53

Tord Gustavsen Quartet / The Well

Used drive : PLEXTOR DVDR PX-L890SA Adapter: 2 ID: 1

Read mode : Secure
Utilize accurate stream : Yes
Defeat audio cache : Yes
Make use of C2 pointers : No

Read offset correction : 6
Overread into Lead-In and Lead-Out : No
Fill up missing offset samples with silence : Yes
Delete leading and trailing silent blocks : No
Null samples used in CRC calculations : Yes
Used interface : Native Win32 interface for Win NT & 2000
Gap handling : Appended to previous track

Used output format : User Defined Encoder
Selected bitrate : 256 kBit/s
Quality : High
Add ID3 tag : No
Command line compressor : C:\Program Files (x86)\Exact Audio Copy\FLAC\FLAC.EXE
Additional command line options : -8 -V -T "ARTIST=%artist%" -T "TITLE=%title%" -T "ALBUM=%albumtitle%" -T "DATE=%year%" -T "TRACKNUMBER=%tracknr%" -T "TOTALTRACKS=%numtracks%" -T "GENRE=%genre%" -T "ALBUMARTIST=%albumartist%" -T "ALBUM ARTIST=%albumartist%


TOC of the extracted CD

Track | Start | Length | Start sector | End sector
---------------------------------------------------------
1 | 0:00.00 | 2:51.11 | 0 | 12835
2 | 2:51.11 | 5:38.52 | 12836 | 38237
3 | 8:29.63 | 8:22.25 | 38238 | 75912
4 | 16:52.13 | 4:36.39 | 75913 | 96651
5 | 21:28.52 | 4:42.31 | 96652 | 117832
6 | 26:11.08 | 1:13.50 | 117833 | 123357
7 | 27:24.58 | 5:14.67 | 123358 | 146974
8 | 32:39.50 | 5:50.58 | 146975 | 173282
9 | 38:30.33 | 5:58.42 | 173283 | 200174
10 | 44:29.00 | 4:33.53 | 200175 | 220702
11 | 49:02.53 | 4:16.42 | 220703 | 239944


Track 1

Filename F:\Flac Rips\01 - Prelude.wav

Pre-gap length 0:00:02.00

Peak level 49.5 %
Extraction speed 3.2 X
Track quality 100.0 %
Test CRC 8256DB25
Copy CRC 8256DB25
Accurately ripped (confidence 2) [1E37E328] (AR v2)
Copy OK

Track 2

Filename F:\Flac Rips\02 - Playing.wav

Pre-gap length 0:00:02.44

Peak level 98.5 %
Extraction speed 4.0 X
Track quality 100.0 %
Test CRC 4E8D8D3A
Copy CRC 4E8D8D3A
Accurately ripped (confidence 2) [A2B9E7C1] (AR v2)
Copy OK

Track 3

Filename F:\Flac Rips\03 - Suite.wav

Pre-gap length 0:00:03.14

Peak level 98.5 %
Extraction speed 4.3 X
Track quality 99.9 %
Test CRC 0C1CCAAD
Copy CRC 0C1CCAAD
Accurately ripped (confidence 2) [D60804DD] (AR v2)
Copy OK

Track 4

Filename F:\Flac Rips\04 - Communion.wav

Pre-gap length 0:00:02.44

Peak level 40.8 %
Extraction speed 4.1 X
Track quality 99.9 %
Test CRC 1ED08FE6
Copy CRC 1ED08FE6
Accurately ripped (confidence 2) [4F508C4C] (AR v2)
Copy OK

Track 5

Filename F:\Flac Rips\05 - Circling.wav

Pre-gap length 0:00:02.44

Peak level 76.9 %
Extraction speed 5.4 X
Track quality 100.0 %
Test CRC CFF3995A
Copy CRC CFF3995A
Accurately ripped (confidence 2) [71A02F0F] (AR v2)
Copy OK

Track 6

Filename F:\Flac Rips\06 - Glasgow Intro.wav

Pre-gap length 0:00:03.20

Peak level 19.5 %
Extraction speed 2.5 X
Track quality 99.8 %
Test CRC 59ED2F12
Copy CRC 59ED2F12
Accurately ripped (confidence 2) [169455DE] (AR v2)
Copy OK

Track 7

Filename F:\Flac Rips\07 - On Every Corner.wav

Peak level 84.5 %
Extraction speed 5.9 X
Track quality 100.0 %
Test CRC 1A292025
Copy CRC 1A292025
Accurately ripped (confidence 2) [3647E03E] (AR v2)
Copy OK

Track 8

Filename F:\Flac Rips\08 - The Well.wav

Pre-gap length 0:00:02.46

Peak level 94.3 %
Extraction speed 6.2 X
Track quality 100.0 %
Test CRC 44F34838
Copy CRC 44F34838
Accurately ripped (confidence 2) [97EED61F] (AR v2)
Copy OK

Track 9

Filename F:\Flac Rips\09 - Communion, var.wav

Pre-gap length 0:00:02.46

Peak level 45.5 %
Extraction speed 5.6 X
Track quality 99.9 %
Test CRC 64CE23B8
Copy CRC 64CE23B8
Accurately ripped (confidence 2) [354D319A] (AR v2)
Copy OK

Track 10

Filename F:\Flac Rips\10 - Intuition.wav

Pre-gap length 0:00:04.30

Peak level 74.4 %
Extraction speed 6.6 X
Track quality 100.0 %
Test CRC 03F50FE1
Copy CRC 03F50FE1
Accurately ripped (confidence 2) [BB056573] (AR v2)
Copy OK

Track 11

Filename F:\Flac Rips\11 - Inside.wav

Pre-gap length 0:00:02.28

Peak level 42.2 %
Extraction speed 6.9 X
Track quality 100.0 %
Test CRC A31BD718
Copy CRC A31BD718
Accurately ripped (confidence 2) [52E07B4E] (AR v2)
Copy OK


All tracks accurately ripped

No errors occurred

End of status report

==== Log checksum 31AACC89B3358DFF6EE3FAEFFD80B75E05FDC811F881C70AAC0DB7606CD5EF0E ====

Dynamic Range Analysis

--------------------------------------------------------------------------------
Analyzed: Tord Gustavsen Quartet / The Well
--------------------------------------------------------------------------------

DR Peak RMS Duration Track
--------------------------------------------------------------------------------
DR13 -6.10 dB -24.75 dB 2:51 01-Prelude
DR14 -0.13 dB -19.23 dB 5:39 02-Playing
DR13 -0.13 dB -18.99 dB 8:22 03-Suite
DR13 -7.78 dB -25.56 dB 4:37 04-Communion
DR13 -2.27 dB -20.17 dB 4:42 05-Circling
DR15 -14.20 dB -33.15 dB 1:14 06-Glasgow Intro
DR13 -1.46 dB -18.60 dB 5:15 07-On Every Corner
DR14 -0.50 dB -19.81 dB 5:51 08-The Well
DR14 -6.83 dB -26.49 dB 5:59 09-Communion, var
DR14 -2.56 dB -20.67 dB 4:34 10-Intuition
DR11 -7.48 dB -24.73 dB 4:17 11-Inside
--------------------------------------------------------------------------------

Number of tracks: 11
Official DR value: DR13

Samplerate: 44100 Hz
Channels: 2
Bits per sample: 16
Bitrate: 451 kbps
Codec: FLAC
================================================================================



Rip by jlgt



The Files Are Interchangeable
ADVERTISING » Click here to download Ebooks/Magazines for free « ADVERTISING


Posted By: grafassi Date: 08 Mar 2012 17:29:24
Thanks, tiburon, but it would take four days to get this from fp. Oh well...
Posted By: papalotleco Date: 09 Mar 2012 00:53:14
thanks for this
Posted By: ljhatlga Date: 09 Mar 2012 15:01:25
I've been waiting for this--thanks for the great gift!
Posted By: lokiguy Date: 29 Mar 2012 05:00:35
Thanks, tiburon. This is an eagerly awaited cd.
I have seen this 2 other places but their links do not work in the US.
Filepost is not speedy but at least I can get it.
Posted By: levoi Date: 03 Jul 2012 06:49:34
Thanks its great