Loading...

Sonny Rollins - Original Album Classics, CD.2 of 5 [5-CD BoxSet] (2007)

Posted By : Oceandrop | Date : 15 Jul 2010 17:07:55 | Comments : 9 |
|



Sonny Rollins - Original Album Classics, CD.2 of 5 (2007)
Jazz | EAC-Rip | FLAC-5 Image+CUE+LOG | 400 MB. total
No Scans (Complete Scans will be posted with the 5th CD) | WinRar, 5% recovery
Label: Sony / BMG Music Ent. | Catalog# 886971-45532 | 61:49 min.


(c) 2007 - Sony BMG Music Entertainment. Originally released 1962, 1963, 1964.
(p) Sony BMG Music Entertainment. Manufactured and distributed by Sony BMG Music Entertainment.

For full album credits, go http://www.musicmadesimple.info


Tracklist, CD.2 of 5 (Our Man in Jazz):
01. Oleo
02. Dearly Beloved
03. Doxy
04. You Are My Lucky Star
05. I Could Write a Book
06. There Will Never Be Another You

EAC-logs (Combined)
CD.1 of 5
==============================================================================================================
Exact Audio Copy V0.99 prebeta 5 from 4. May 2009

EAC extraction logfile from 15. July 2010, 8:45

Sonny Rollins / Org. Album Classics (BoxSet), CD.1 of 5 (The Bridge)

Used drive : ASUS DRW-1608P3S Adapter: 0 ID: 1

Read mode : Secure
Utilize accurate stream : Yes
Defeat audio cache : Yes
Make use of C2 pointers : No

Read offset correction : 48
Overread into Lead-In and Lead-Out : No
Fill up missing offset samples with silence : Yes
Delete leading and trailing silent blocks : No
Null samples used in CRC calculations : Yes
Used interface : Native Win32 interface for Win NT & 2000

Used output format : Internal WAV Routines
Sample format : 44.100 Hz; 16 Bit; Stereo


TOC of the extracted CD

Track | Start | Length | Start sector | End sector
---------------------------------------------------------
1 | 0:00.00 | 7:28.67 | 0 | 33666
2 | 7:28.67 | 5:10.73 | 33667 | 56989
3 | 12:39.65 | 7:45.65 | 56990 | 91929
4 | 20:25.55 | 5:58.72 | 91930 | 118851
5 | 26:24.52 | 7:29.00 | 118852 | 152526
6 | 33:53.52 | 6:49.20 | 152527 | 183221


Range status and errors

Selected range

Filename H:\WORK - SONNY ROLLINS\CD.1 of 5 (The Bridge)\Sonny Rollins - Org. Album Classics (BoxSet), CD.1 of 5 (The Bridge).wav

Peak level 97.7 %
Range quality 100.0 %
Test CRC E103C2C0
Copy CRC E103C2C0
Copy OK

No errors occurred


AccurateRip summary

Track 1 accurately ripped (confidence 13) [DC671596]
Track 2 accurately ripped (confidence 13) [FC5DDE88]
Track 3 accurately ripped (confidence 13) [291F781E]
Track 4 accurately ripped (confidence 13) [70AF8866]
Track 5 accurately ripped (confidence 13) [152EC5A0]
Track 6 accurately ripped (confidence 13) [71D06B91]

All tracks accurately ripped

End of status report
==============================================================================================================








CD.2 of 5
==============================================================================================================
Exact Audio Copy V0.99 prebeta 5 from 4. May 2009

EAC extraction logfile from 15. July 2010, 9:07

Sonny Rollins / Org. Album Classics (BoxSet), CD.2 of 5 (Our Man in Jazz)

Used drive : ASUS DRW-1608P3S Adapter: 0 ID: 1

Read mode : Secure
Utilize accurate stream : Yes
Defeat audio cache : Yes
Make use of C2 pointers : No

Read offset correction : 48
Overread into Lead-In and Lead-Out : No
Fill up missing offset samples with silence : Yes
Delete leading and trailing silent blocks : No
Null samples used in CRC calculations : Yes
Used interface : Native Win32 interface for Win NT & 2000

Used output format : Internal WAV Routines
Sample format : 44.100 Hz; 16 Bit; Stereo


TOC of the extracted CD

Track | Start | Length | Start sector | End sector
---------------------------------------------------------
1 | 0:00.32 | 25:26.63 | 32 | 114544
2 | 25:27.20 | 8:17.52 | 114545 | 151871
3 | 33:44.72 | 15:17.38 | 151872 | 220684
4 | 49:02.35 | 3:46.12 | 220685 | 237646
5 | 52:48.47 | 3:16.65 | 237647 | 252411
6 | 56:05.37 | 5:43.70 | 252412 | 278206


Range status and errors

Selected range

Filename H:\WORK - SONNY ROLLINS\CD.2 of 5 (Our Man in Jazz)\Sonny Rollins - Org. Album Classics (BoxSet), CD.2 of 5 (Our Man in Jazz).wav

Peak level 100.0 %
Range quality 100.0 %
Test CRC 4B9188A5
Copy CRC 4B9188A5
Copy OK

No errors occurred


AccurateRip summary

Track 1 accurately ripped (confidence 7) [E7619C97]
Track 2 accurately ripped (confidence 7) [E3E5D0DE]
Track 3 accurately ripped (confidence 8) [CDE54B9C]
Track 4 accurately ripped (confidence 8) [544495AA]
Track 5 accurately ripped (confidence 8) [5C710EEE]
Track 6 accurately ripped (confidence 8) [BDBDD2A6]

All tracks accurately ripped

End of status report
==============================================================================================================









CD.3 of 5
==============================================================================================================
Exact Audio Copy V0.99 prebeta 5 from 4. May 2009

EAC extraction logfile from 15. July 2010, 9:33

Sonny Rollins / Org. Album Classics (BoxSet), CD.3 of 5 (What's New?)

Used drive : ASUS DRW-1608P3S Adapter: 0 ID: 1

Read mode : Secure
Utilize accurate stream : Yes
Defeat audio cache : Yes
Make use of C2 pointers : No

Read offset correction : 48
Overread into Lead-In and Lead-Out : No
Fill up missing offset samples with silence : Yes
Delete leading and trailing silent blocks : No
Null samples used in CRC calculations : Yes
Used interface : Native Win32 interface for Win NT & 2000

Used output format : Internal WAV Routines
Sample format : 44.100 Hz; 16 Bit; Stereo


TOC of the extracted CD

Track | Start | Length | Start sector | End sector
---------------------------------------------------------
1 | 0:00.32 | 12:06.45 | 32 | 54526
2 | 12:07.02 | 6:09.55 | 54527 | 82256
3 | 18:16.57 | 10:54.00 | 82257 | 131306
4 | 29:10.57 | 4:43.20 | 131307 | 152551
5 | 33:54.02 | 9:12.73 | 152552 | 194024
6 | 43:07.00 | 6:46.32 | 194025 | 224506


Range status and errors

Selected range

Filename H:\WORK - SONNY ROLLINS\CD.3 of 5 (What's New)\Sonny Rollins - Org. Album Classics (BoxSet), CD.3 of 5 (What's New ).wav

Peak level 100.0 %
Range quality 100.0 %
Test CRC 1746408C
Copy CRC 1746408C
Copy OK

No errors occurred


AccurateRip summary

Track 1 accurately ripped (confidence 11) [79472C19]
Track 2 accurately ripped (confidence 11) [EEAAA34A]
Track 3 accurately ripped (confidence 11) [82DCAC0A]
Track 4 accurately ripped (confidence 11) [55C12515]
Track 5 accurately ripped (confidence 11) [53A6E8EF]
Track 6 accurately ripped (confidence 11) [35C9C6AF]

All tracks accurately ripped

End of status report
==============================================================================================================







CD.4 of 5
==============================================================================================================
Exact Audio Copy V0.99 prebeta 5 from 4. May 2009

EAC extraction logfile from 15. July 2010, 10:07

Sonny Rollins / Org. Album Classics (BoxSet), CD.4 of 5 (Sonny Meets Hawk)

Used drive : ASUS DRW-1608P3S Adapter: 0 ID: 1

Read mode : Secure
Utilize accurate stream : Yes
Defeat audio cache : Yes
Make use of C2 pointers : No

Read offset correction : 48
Overread into Lead-In and Lead-Out : No
Fill up missing offset samples with silence : Yes
Delete leading and trailing silent blocks : No
Null samples used in CRC calculations : Yes
Used interface : Native Win32 interface for Win NT & 2000

Used output format : Internal WAV Routines
Sample format : 44.100 Hz; 16 Bit; Stereo


TOC of the extracted CD

Track | Start | Length | Start sector | End sector
---------------------------------------------------------
1 | 0:00.00 | 5:14.15 | 0 | 23564
2 | 5:14.15 | 9:34.47 | 23565 | 66661
3 | 14:48.62 | 5:58.73 | 66662 | 93584
4 | 20:47.60 | 4:40.52 | 93585 | 114636
5 | 25:28.37 | 8:54.65 | 114637 | 154751
6 | 34:23.27 | 7:03.40 | 154752 | 186516
7 | 41:26.67 | 3:47.33 | 186517 | 203574
8 | 45:14.25 | 3:16.45 | 203575 | 218319
9 | 48:30.70 | 5:40.53 | 218320 | 243872


Range status and errors

Selected range

Filename H:\WORK - SONNY ROLLINS\CD.4 of 5 (Sonny Meets Hawk)\Sonny Rollins - Org. Album Classics (BoxSet), CD.4 of 5 (Sonny Meets Hawk).wav

Peak level 97.7 %
Range quality 100.0 %
Test CRC 8942185F
Copy CRC 8942185F
Copy OK

No errors occurred


AccurateRip summary

Track 1 accurately ripped (confidence 10) [D8F90527]
Track 2 accurately ripped (confidence 10) [167CB7EE]
Track 3 accurately ripped (confidence 10) [2E061CCB]
Track 4 accurately ripped (confidence 10) [CD3D9554]
Track 5 accurately ripped (confidence 10) [46BD8245]
Track 6 accurately ripped (confidence 10) [D9E93C8E]
Track 7 accurately ripped (confidence 10) [6D636810]
Track 8 accurately ripped (confidence 10) [9B616114]
Track 9 accurately ripped (confidence 10) [F9226914]

All tracks accurately ripped

End of status report
==============================================================================================================










CD.5 of 5
==============================================================================================================
Exact Audio Copy V0.99 prebeta 5 from 4. May 2009

EAC extraction logfile from 15. July 2010, 10:30

Sonny Rollins / Org. Album Classics (BoxSet), CD.5 of 5 (The Standard Sonny Rollins)

Used drive : ASUS DRW-1608P3S Adapter: 0 ID: 1

Read mode : Secure
Utilize accurate stream : Yes
Defeat audio cache : Yes
Make use of C2 pointers : No

Read offset correction : 48
Overread into Lead-In and Lead-Out : No
Fill up missing offset samples with silence : Yes
Delete leading and trailing silent blocks : No
Null samples used in CRC calculations : Yes
Used interface : Native Win32 interface for Win NT & 2000

Used output format : Internal WAV Routines
Sample format : 44.100 Hz; 16 Bit; Stereo


TOC of the extracted CD

Track | Start | Length | Start sector | End sector
---------------------------------------------------------
1 | 0:00.00 | 3:02.62 | 0 | 13711
2 | 3:02.62 | 3:19.38 | 13712 | 28674
3 | 6:22.25 | 3:29.00 | 28675 | 44349
4 | 9:51.25 | 6:01.00 | 44350 | 71424
5 | 15:52.25 | 2:16.00 | 71425 | 81624
6 | 18:08.25 | 4:08.37 | 81625 | 100261
7 | 22:16.62 | 1:38.38 | 100262 | 107649
8 | 23:55.25 | 4:14.00 | 107650 | 126699
9 | 28:09.25 | 4:21.00 | 126700 | 146274
10 | 32:30.25 | 2:49.50 | 146275 | 158999
11 | 35:20.00 | 5:20.00 | 159000 | 182999
12 | 40:40.00 | 3:18.25 | 183000 | 197874
13 | 43:58.25 | 12:44.12 | 197875 | 255186


Range status and errors

Selected range

Filename H:\WORK - SONNY ROLLINS\CD.5 of 5 (The Standard Sonny Rollins)\Sonny Rollins - Org. Album Classics (BoxSet), CD.5 of 5 (The Standard Sonny Rollins).wav

Peak level 100.0 %
Range quality 100.0 %
Test CRC 42D9C59A
Copy CRC 42D9C59A
Copy OK

No errors occurred


AccurateRip summary

Track 1 accurately ripped (confidence 11) [96C5B993]
Track 2 accurately ripped (confidence 10) [CB60841F]
Track 3 accurately ripped (confidence 10) [68805621]
Track 4 accurately ripped (confidence 10) [40E0D2CF]
Track 5 accurately ripped (confidence 10) [F37ED0C5]
Track 6 accurately ripped (confidence 10) [DF0242F0]
Track 7 accurately ripped (confidence 10) [74E804B0]
Track 8 accurately ripped (confidence 10) [5CCC12A7]
Track 9 accurately ripped (confidence 10) [3961C771]
Track 10 accurately ripped (confidence 10) [A8175FE0]
Track 11 accurately ripped (confidence 10) [13772841]
Track 12 accurately ripped (confidence 10) [ECA0862B]
Track 13 accurately ripped (confidence 10) [4F241962]

All tracks accurately ripped

End of status report
==============================================================================================================



Downloads (RapidShare):

Audio, CD.2 of 5 - 4 parts;

Part-1 | Part-2 | Part-3 | Part-4

No password..


ADVERTISING » Click here to download Ebooks/Magazines for free « ADVERTISING


Posted By: wc2 Date: 15 Jul 2010 17:28:38
Thanks a bunch for the post, Oceandrop. I look forward to the other CDs in the box.
Posted By: vidiat Date: 15 Jul 2010 19:33:10
Thanks for using RS!
Posted By: Oceandrop Date: 15 Jul 2010 20:25:49
You're welcome @wc2 & @vidiat.. I want to talk & ask about the changes in RapidShare.. It's clear that nearly no uploader
wants to host their files in RS anymore.. I do this sharing job as a hobby, just to make myself & jazz lover friends happy,
therefore I didn't feel need to change my host service; but on the other side; generally, a nice amount of money turns
in this sharing stuff; it's a kind of trading or business.. I mean, how can RS do such a mistake (not rewarding uploaders anymore)? Or it was a mistake or there're some other things that I couldn't understand yet?
I'll be glad if anyone can clarify me..
Best regards;
Posted By: fjazzlover Date: 15 Jul 2010 20:45:44
Thanks a lot. Wonderful share.
Cheers from Brazil.
Posted By: barcarossa Date: 15 Jul 2010 21:16:40
When we share something, we should do it for NO MONEY, whoever wants to do it for a reward is committing a copyright crime right on the spot. The others are subject to the laws as well, but do deserve some tolerance. Rapidshare problem was to start punishing the down-loaders financially, and that, from the common down-loader tight budget point-of-view, does not seem acceptable, them being the reference in the field...
Posted By: Sadream Date: 15 Jul 2010 23:27:55
Dear Oceandrop,
Where is the LOVE for the art of music?????? That is what happened here.All the usual suspects clearly proved that
the only thing that counts is money.They turned this beautiful site in a piece of junk just in one night.
It's the first time after five years that i have see so much cheap music here in Avax.And about RS....HMMMM!
I have good news for you my friend--->In less than two months they all gonna return and you know why?
Because the statistics from the other hosters that i read in the internet polls show that the DOWNLOADERS
diminished a lot.Yes the downloaders my friend.....all these people that made the pooor uploaders what they are today.
And what about this crazy idea of mine---->Show some RESPECT here to all these people who have RS accounts because
it was the administrators first and big decision.This is the way you are showing your gratitude to the thousands of
your users? Sorry Oceadrop if i said too much but i am completely disappointed.
Thank you once again for your courage and the beautiful music you give to all the people.Goodnight and be happy!!!!
Posted By: Oceandrop Date: 16 Jul 2010 09:50:42
@barcorossa; thank you for writing..

@Mr. Christ.. Nice to see you again Mr. Christ.. I completely agree with you in RS, I think that lots of people here has
premium RS accounts; because before 15-20 days, nearly every publishing has a RS link in Avax; it was so popular I mean,
but it has went down suddenly with it's new system.. On the other side, as I know RS works with no problem in anywhere;
for example, sometime before a friend published "Michel Camilo & Tomatito - Spain (or Spain Again)"; I wanted to download
it, but I couldn't because links were in Megaupload, and it's impossible to download something there because it's forbidden
by our government for a long time.. Therefore, I wish Rs, as you said Mr. Christ; to solve this problem as shortly as
possible, I think no one was unhappy here up to 15-20 days before..

With my best regards Mr. Christ..
Oceandrop.
Posted By: dantzig65 Date: 16 Jul 2010 12:50:03
Thank you for "SR" and for "RS" (Sonny Rollins and Rapidshare).
Posted By: notoriousd Date: 08 Jul 2011 08:11:34
thanks for RS, very professional :)