Loading...

Michel Petrucciani - Date With Time (1981)

Posted By : tiburon | Date : 23 Mar 2012 18:25:10 | Comments : 3 |
|



Michel Petrucciani - Date With Time (1981)
EAC 1.0b2 | FLAC tracks level 8 | Cue+Log+M3U+MD5 | Full Scans 300dpi | 200MB + 5% Recovery
Genre: Jazz

Michel Petrucciani was a few weeks shy of his 19th birthday when he recorded this solo CD, which was not widely available until it was distributed by Rhino nearly a decade later. The pianist's program is an ambitious one, starting with a dark, richly-textured interpretation of Mongo Santamaria's "Afro Blue" (incorrectly attributed to John Coltrane, although he did help to make the piece famous with his recording of it). His dramatic take of "'Round Midnight" has an especially haunting quality to it. Wes Montgomery's "Bumpin' on the Sunset" is also in good hands, with Petrucciani delivering a masterful performance.

Track List
01. Santa Barbara 6:41
02. Afro Blue 5:24
03. Round About Midnight 10:02
04. Memphis Green 5:30
05. Mike Pee 10:15
06. Bumpin' On The Sunset 5:40

Michel Petrucciani - piano solo

Produced by Jean-Jacques Pussiau and Francois Lemaire

EAC Logfile

Exact Audio Copy V1.0 beta 2 from 29. April 2011

EAC extraction logfile from 22. March 2012, 18:32

Michel Petrucciani / Date With Time

Used drive : PLEXTOR CD-R PREMIUM2 Adapter: 1 ID: 1

Read mode : Secure
Utilize accurate stream : Yes
Defeat audio cache : Yes
Make use of C2 pointers : No

Read offset correction : 30
Overread into Lead-In and Lead-Out : No
Fill up missing offset samples with silence : Yes
Delete leading and trailing silent blocks : No
Null samples used in CRC calculations : Yes
Used interface : Installed external ASPI interface
Gap handling : Appended to previous track

Used output format : User Defined Encoder
Selected bitrate : 256 kBit/s
Quality : High
Add ID3 tag : No
Command line compressor : C:\Programmi\eac-1.00\Flac\flac.exe
Additional command line options : -8 -V -T "ARTIST=%artist%" -T "TITLE=%title%" -T "ALBUM=%albumtitle%" -T "DATE=%year%" -T "TRACKNUMBER=%tracknr%" %source%


TOC of the extracted CD

Track | Start | Length | Start sector | End sector
---------------------------------------------------------
1 | 0:00.50 | 6:51.10 | 50 | 30884
2 | 6:51.60 | 5:33.20 | 30885 | 55879
3 | 12:25.05 | 10:12.52 | 55880 | 101831
4 | 22:37.57 | 5:36.65 | 101832 | 127096
5 | 28:14.47 | 10:25.03 | 127097 | 173974
6 | 38:39.50 | 5:44.30 | 173975 | 199804


Track 1

Filename D:\My Rip\01 - Santa Barbara.wav

Pre-gap length 0:00:02.50

Peak level 100.0 %
Extraction speed 8.8 X
Track quality 100.0 %
Test CRC 3B7A2C5F
Copy CRC 3B7A2C5F
Accurately ripped (confidence 2) [51FC2E10] (AR v1)
Copy OK

Track 2

Filename D:\My Rip\02 - Afro Blues.wav

Pre-gap length 0:00:03.23

Peak level 73.2 %
Extraction speed 10.1 X
Track quality 100.0 %
Test CRC BE600B36
Copy CRC BE600B36
Accurately ripped (confidence 2) [07EA6B68] (AR v1)
Copy OK

Track 3

Filename D:\My Rip\03 - Round About Midnight.wav

Pre-gap length 0:00:03.73

Peak level 86.4 %
Extraction speed 11.7 X
Track quality 100.0 %
Test CRC 13F89892
Copy CRC 13F89892
Accurately ripped (confidence 2) [7DD035BA] (AR v1)
Copy OK

Track 4

Filename D:\My Rip\04 - Memphis Green.wav

Pre-gap length 0:00:02.40

Peak level 94.4 %
Extraction speed 12.5 X
Track quality 100.0 %
Test CRC EB6DBA83
Copy CRC EB6DBA83
Accurately ripped (confidence 2) [99B07B71] (AR v1)
Copy OK

Track 5

Filename D:\My Rip\05 - Mike Pee.wav

Pre-gap length 0:00:01.20

Peak level 90.3 %
Extraction speed 14.1 X
Track quality 100.0 %
Test CRC 2423DAFC
Copy CRC 2423DAFC
Accurately ripped (confidence 2) [3A56399D] (AR v1)
Copy OK

Track 6

Filename D:\My Rip\06 - Bumpin' on the Sunset.wav

Pre-gap length 0:00:01.70

Peak level 83.8 %
Extraction speed 14.9 X
Track quality 100.0 %
Test CRC A7F17850
Copy CRC A7F17850
Accurately ripped (confidence 2) [95F60226] (AR v1)
Copy OK


All tracks accurately ripped

No errors occurred

End of status report

==== Log checksum C129B59481CD671A04C6041B20FE02F930878813A5D49C3D283C97CFAD50528E ====

Dynamic Range Analysis

--------------------------------------------------------------------------------
Analyzed: Michel Petrucciani / Date With Time
--------------------------------------------------------------------------------

DR Peak RMS Duration Track
--------------------------------------------------------------------------------
DR14 0.00 dB -19.63 dB 6:51 01-Santa Barbara
DR12 -2.70 dB -19.28 dB 5:33 02-Afro Blues
DR15 -1.26 dB -21.18 dB 10:13 03-Round About Midnight
DR15 -0.49 dB -19.91 dB 5:37 04-Memphis Green
DR14 -0.88 dB -20.43 dB 10:25 05-Mike Pee
DR15 -1.53 dB -20.32 dB 5:44 06-Bumpin' on the Sunset
--------------------------------------------------------------------------------

Number of tracks: 6
Official DR value: DR14

Samplerate: 44100 Hz
Channels: 2
Bits per sample: 16
Bitrate: 608 kbps
Codec: FLAC
================================================================================



Rip by Sarchiapone



The Files Are Interchangeable
ADVERTISING » Click here to download Ebooks/Magazines for free « ADVERTISING


Posted By: achelbe Date: 24 Mar 2012 11:46:10
Superb document about this exceptional musician; thanks a lot.
Posted By: Kutya Date: 27 Mar 2012 05:33:58
Thank You!
Posted By: vasiya Date: 30 Mar 2012 06:47:35
Благодарю вас.