Loading...

Joe Farrell - Canned Funk (1975)

Posted By : tiburon | Date : 07 Mar 2012 19:46:32 | Comments : 3 |
|



Joe Farrell - Canned Funk (1975)
X Lossless Decoder | FLAC tracks | Cue+Log+M3U | Full Scans 300dpi | 236MB + 5% Recovery
Genre: Jazz, Fusion

Canned Funk is a jazz album by Joe Farrell for CTI Records. It was recorded at Van Gelder Studios November and December 1974. The album was released in 1975.

Track List
01. Canned Funk 7:20
02. Animal 9:55
03. Suite Martinique 9:03
04. Spoken Silence 7:43

musicians
Joe Farrell - tenor, soprano & baritone saxes, flute
Joe Beck - guitar
Herb Bushler - bass
Jim Madison - drums
Ray Mantilla - congas, percussion

Produced by Creed Taylor

XLD Logfile

X Lossless Decoder version 20110703 (135.1)

XLD extraction logfile from 2011-08-11 13:01:12 +0400

Joe Farrell / Canned Funk

Used drive : HL-DT-ST DVDRW GS23N (revision SB00)

Ripper mode : CDParanoia III 10.2
Disable audio cache : OK for the drive with a cache less than 2750KiB
Make use of C2 pointers : NO
Read offset correction : 667
Max retry count : 10
Gap status : Analyzed, Appended

TOC of the extracted CD
Track | Start | Length | Start sector | End sector
---------------------------------------------------------
1 | 00:00:00 | 07:23:25 | 0 | 33249
2 | 07:23:25 | 09:58:50 | 33250 | 78149
3 | 17:22:00 | 09:08:15 | 78150 | 119264
4 | 26:30:15 | 07:47:57 | 119265 | 154346

List of alternate offset correction values
# | Absolute | Relative | Confidence
------------------------------------------
1 | 661 | -6 | 1

AccurateRip Summary
Track 01 : OK (confidence 1, with different offset)
Track 02 : OK (confidence 1, with different offset)
Track 03 : OK (confidence 1, with different offset)
Track 04 : OK (confidence 1, with different offset)
->All tracks accurately ripped.

All Tracks
Album gain : -9.97 dB
Peak : 1.000000
Statistics
Read error : 0
Skipped (treated as error) : 0
Edge jitter error (maybe fixed) : 0
Atom jitter error (maybe fixed) : 0
Drift error (maybe fixed) : 0
Dropped bytes error (maybe fixed) : 0
Duplicated bytes error (maybe fixed) : 0

Track 01
Filename : /Users/olegbelov/Downloads/Joe Farrell - Canned Funk (1974)/01 - Canned Funk.flac
Pre-gap length : 00:02:00

Track gain : -9.43 dB
Peak : 0.997345
CRC32 hash (test run) : 765F3F7C
CRC32 hash : 765F3F7C
CRC32 hash (skip zero) : 13B6A1CD
AccurateRip signature : 6D974E2D
->Accurately ripped! (confidence 1)
(matched with the different offset correction value;
calculated using an additional offset of -6;
the signature after correction is: ACE65A8D)
Statistics
Read error : 0
Skipped (treated as error) : 0
Edge jitter error (maybe fixed) : 0
Atom jitter error (maybe fixed) : 0
Drift error (maybe fixed) : 0
Dropped bytes error (maybe fixed) : 0
Duplicated bytes error (maybe fixed) : 0
Inconsistency in error sectors : 0

Track 02
Filename : /Users/olegbelov/Downloads/Joe Farrell - Canned Funk (1974)/02 - Animal.flac

Track gain : -9.52 dB
Peak : 1.000000
CRC32 hash (test run) : 062FFFED
CRC32 hash : 062FFFED
CRC32 hash (skip zero) : 14688CC1
AccurateRip signature : 23927E4D
->Accurately ripped! (confidence 1)
(matched with the different offset correction value;
calculated using an additional offset of -6;
the signature after correction is: 7B1D9D5B)
Statistics
Read error : 0
Skipped (treated as error) : 0
Edge jitter error (maybe fixed) : 0
Atom jitter error (maybe fixed) : 0
Drift error (maybe fixed) : 0
Dropped bytes error (maybe fixed) : 0
Duplicated bytes error (maybe fixed) : 0
Inconsistency in error sectors : 0

Track 03
Filename : /Users/olegbelov/Downloads/Joe Farrell - Canned Funk (1974)/03 - Suite Martinique.flac

Track gain : -7.90 dB
Peak : 0.999115
CRC32 hash (test run) : 09B85E7D
CRC32 hash : 09B85E7D
CRC32 hash (skip zero) : 59F59337
AccurateRip signature : C74E24F5
->Accurately ripped! (confidence 1)
(matched with the different offset correction value;
calculated using an additional offset of -6;
the signature after correction is: E945E84F)
Statistics
Read error : 0
Skipped (treated as error) : 0
Edge jitter error (maybe fixed) : 0
Atom jitter error (maybe fixed) : 0
Drift error (maybe fixed) : 0
Dropped bytes error (maybe fixed) : 0
Duplicated bytes error (maybe fixed) : 0
Inconsistency in error sectors : 0

Track 04
Filename : /Users/olegbelov/Downloads/Joe Farrell - Canned Funk (1974)/04 - Spoken Silence.flac

Track gain : -10.90 dB
Peak : 1.000000
CRC32 hash (test run) : 5F1ABDA8
CRC32 hash : 5F1ABDA8
CRC32 hash (skip zero) : 0A92510F
AccurateRip signature : 1D33B9AF
->Accurately ripped! (confidence 1)
(matched with the different offset correction value;
calculated using an additional offset of -6;
the signature after correction is: 8D5C852D)
Statistics
Read error : 0
Skipped (treated as error) : 0
Edge jitter error (maybe fixed) : 0
Atom jitter error (maybe fixed) : 0
Drift error (maybe fixed) : 0
Dropped bytes error (maybe fixed) : 0
Duplicated bytes error (maybe fixed) : 0
Inconsistency in error sectors : 0

No errors occurred

End of status report

Dynamic Range Analysis

--------------------------------------------------------------------------------
Analyzed: Joe Farrell / Canned Funk
--------------------------------------------------------------------------------

DR Peak RMS Duration Track
--------------------------------------------------------------------------------
DR9 -0.02 dB -10.64 dB 7:23 01-Canned Funk
DR9 0.00 dB -9.99 dB 9:59 02-Animal
DR9 -0.01 dB -11.17 dB 9:08 03-Suite Martinique
DR8 0.00 dB -9.33 dB 7:48 04-Spoken Silence
--------------------------------------------------------------------------------

Number of tracks: 4
Official DR value: DR9

Samplerate: 44100 Hz
Channels: 2
Bits per sample: 16
Bitrate: 1000 kbps
Codec: FLAC
================================================================================



Rip by funky_cat



The Files Are Interchangeable
ADVERTISING » Click here to download Ebooks/Magazines for free « ADVERTISING


Posted By: itadiegues Date: 09 Mar 2012 13:57:33
Muchas gracias.
Posted By: nrwsps Date: 14 Mar 2012 05:48:51
Many Thanks.
Posted By: calisan Date: 17 Mar 2012 23:39:47
Despues de muchos aƱos de escucharlo en vinil, descubro q' existe en CD. Grandioso!!
Suite Martinique mi favorita!
Gracias tiburon nuevamente