Loading...

Carla Bley / Andy Sheppard / Steve Swallow - Trios (2013) {ECM 2287}

Posted By : tiburon | Date : 28 Nov 2013 13:08:30 | Comments : 3 |
|



Carla Bley / Andy Sheppard / Steve Swallow - Trios (2013) {ECM 2287}
EAC 1.0b3 | FLAC tracks level 8 | Cue+Log+M3U | Full Scans 300dpi | 281MB + 5% Recovery
Genre: Jazz

Carla Bley, Andy Sheppard and Steve Swallow revisit classic Bley compositions on an exceptional album recorded in Lugano last year by Manfred Eicher. Included here are spirited new versions of Utviklingssang and Vashkar, and the suites Les Trois Lagons, Wildlife and The Girl Who Cried Champagne. Carlas robust tunes are vividly conveyed, all members solo compellingly, and the trio has never sounded better.

Track List
01. Utviklingssang 7:55
02. Vashkar 7:22
03. Les Trois Lagons (d'apr├Ęs Henri Matisse) 14:59
Plate XVII
Plate XVIII
Plate XIX
04. Wildlife 11:34
Horns
Paws Without Claws
Sex With Birds
05. The Girl Who Cried Champagne 14:24
Part 1
Part 2
Part 3

All compositions by Carla Bley

musicians
Carla Bley - piano
Andy Sheppard - tenor and soprano saxophones
Steve Swallow - bass

Produced by Manfred Eicher

EAC Logfile

Exact Audio Copy V1.0 beta 3 from 29. August 2011

EAC extraction logfile from 27. November 2013, 19:13

Carla Bley Andy Sheppard Steve Swallow / Trios

Used drive : PLEXTOR DVDR PX-860A Adapter: 0 ID: 0

Read mode : Secure
Utilize accurate stream : Yes
Defeat audio cache : Yes
Make use of C2 pointers : No

Read offset correction : 96
Overread into Lead-In and Lead-Out : No
Fill up missing offset samples with silence : Yes
Delete leading and trailing silent blocks : No
Null samples used in CRC calculations : Yes
Used interface : Native Win32 interface for Win NT & 2000
Gap handling : Appended to previous track

Used output format : User Defined Encoder
Selected bitrate : 1024 kBit/s
Quality : High
Add ID3 tag : No
Command line compressor : C:\Program Files\Exact Audio Copy\Flac\flac.exe
Additional command line options : -8 -V -T "ARTIST=%artist%" -T "TITLE=%title%" -T "ALBUM=%albumtitle%" -T "DATE=%year%" -T "TRACKNUMBER=%tracknr%" -T "TOTALTRACKS=%numtracks%" -T "GENRE=%genre%" -T "ALBUMARTIST=%albumartist%" -T "ALBUM ARTIST=%albumartist%" -T "COMMENT=EAC Secure Mode, Test & Copy, AccurateRip, FLAC -8" %source%


TOC of the extracted CD

Track | Start | Length | Start sector | End sector
---------------------------------------------------------
1 | 0:00.00 | 7:55.65 | 0 | 35689
2 | 7:55.65 | 7:22.67 | 35690 | 68906
3 | 15:18.57 | 14:59.12 | 68907 | 136343
4 | 30:17.69 | 11:34.39 | 136344 | 188432
5 | 41:52.33 | 14:24.40 | 188433 | 253272


Track 1

Filename O:\DL\Carla Bley Andy Sheppard Steve Swallow - Trios (2013) [FLAC]\01 - Utviklingssang.wav

Pre-gap length 0:00:02.00

Peak level 96.6 %
Extraction speed 4.8 X
Track quality 100.0 %
Test CRC 334D00AF
Copy CRC 334D00AF
Accurately ripped (confidence 10) [E1E8DF00] (AR v2)
Copy OK

Track 2

Filename O:\DL\Carla Bley Andy Sheppard Steve Swallow - Trios (2013) [FLAC]\02 - Vashkar.wav

Peak level 97.1 %
Extraction speed 5.2 X
Track quality 99.9 %
Test CRC D9F510AD
Copy CRC D9F510AD
Accurately ripped (confidence 10) [9DD1C7C9] (AR v2)
Copy OK

Track 3

Filename O:\DL\Carla Bley Andy Sheppard Steve Swallow - Trios (2013) [FLAC]\03 - Les Trois Lagons.wav

Peak level 96.8 %
Extraction speed 6.6 X
Track quality 100.0 %
Test CRC 7BD011E9
Copy CRC 7BD011E9
Accurately ripped (confidence 10) [B10048FE] (AR v2)
Copy OK

Track 4

Filename O:\DL\Carla Bley Andy Sheppard Steve Swallow - Trios (2013) [FLAC]\04 - Wildlife.wav

Peak level 96.6 %
Extraction speed 7.0 X
Track quality 99.9 %
Test CRC F2F6FD58
Copy CRC F2F6FD58
Accurately ripped (confidence 10) [DC97F78C] (AR v2)
Copy OK

Track 5

Filename O:\DL\Carla Bley Andy Sheppard Steve Swallow - Trios (2013) [FLAC]\05 - The Girl Who Cried Champagne.wav

Peak level 96.8 %
Extraction speed 7.8 X
Track quality 99.9 %
Test CRC 8BEBA864
Copy CRC 8BEBA864
Accurately ripped (confidence 9) [ADF3F500] (AR v2)
Copy OK


All tracks accurately ripped

No errors occurred

End of status report

---- CUETools DB Plugin V2.1.3

[CTDB TOCID: mUGzeF1UzbhrbxGFQE.Z13jMHHE-] found, Submit result: mUGzeF1UzbhrbxGFQE.Z13jMHHE- has been confirmed
[90b096ba] (8/8) Accurately ripped


==== Log checksum 37DB16A43C399214E77C368DBFC26D13ABE7BBF2F9470E113E0FD382E4872FE9 ====

Dynamic Range Analysis

--------------------------------------------------------------------------------
Analyzed: Carla Bley Andy Sheppard Steve Swallow / Trios
--------------------------------------------------------------------------------

DR Peak RMS Duration Track
--------------------------------------------------------------------------------
DR14 -0.30 dB -19.23 dB 7:56 01-Utviklingssang
DR11 -0.25 dB -14.66 dB 7:23 02-Vashkar
DR15 -0.28 dB -18.45 dB 14:59 03-Les Trois Lagons
DR11 -0.30 dB -14.94 dB 11:35 04-Wildlife
DR13 -0.28 dB -16.58 dB 14:25 05-The Girl Who Cried Champagne
--------------------------------------------------------------------------------

Number of tracks: 5
Official DR value: DR13

Samplerate: 44100 Hz
Channels: 2
Bits per sample: 16
Bitrate: 538 kbps
Codec: FLAC
================================================================================



Rip by dtromp (W)

ADVERTISING » Free Fast Download! « ADVERTISING


Posted By: grafassi Date: 28 Nov 2013 14:41:51
I wasn't enthused by this earlier in the year, but I like it more now. Lossless doesn't hurt either. Thanks much, tiburon. (Oh, please share any other Abercrombie in lossless that you can. Would be appreciated. tia...)
Posted By: Dokter123 Date: 29 Nov 2013 02:14:09
Great grouping. Thank you.
Posted By: LETRA Date: 06 Dec 2013 01:50:35
Gracias por el disco. Salud !