Loading...

Caldera - Caldera (1976) {Capitol}

Posted By : tiburon | Date : 13 Jun 2011 20:57:43 | Comments : 7 |
|



Caldera - Caldera (1976) {Capitol}
EAC 0.95b3 | FLAC tracks | Cue+Log+M3U | Full Scans 500dpi | 297MB + 5% Recovery
Genre: Jazz Funk,Fusion

One of the most innovative and chance-taking jazz-fusion outfits of the late 1970s, Caldera was a Latin band that combined jazz, funk and rock with a wide variety of Latin music. 1970s fusion explorers like Return to Forever and Weather Report influenced Caldera, but its members were also influenced by everything from Earth, Wind & Fire's soul/funk to Afro-Cuban salsa, Brazilian samba and Andean/Peruvian music.

Track List

01. Guanacaste 6:30
02. Coastin' 4:11
03. Exaltation 6:50
04. Synesthesia 7:42
05. Out Of The Blue 4:45
06. El Juguete 8:28

musicians

Jorge Strunz - acoustic guitar,electric guitar,percussion
Eduardo Del Barrio - acoustic piano, electric piano,synthesizers,percussion,clavinet,vocals
Steve Tavaglione - soprano saxophone, flute,bass,alto flute
Mike Azeredo "Baiano" - congas,percussion
Carlos Vega - drums,percussion
Dean Cortez - electric bass

additional musicians

Raul De Souza - bass,trombone
Roberto Da Silva - percussion
Carolyn Dennis - vocals

Produced by Wayne Henderson

EAC Logfile

EAC extraction logfile from 6. August 2006, 22:05 for CD
Caldera / Caldera

Used drive : _NEC DVD_RW ND-3540A Adapter: 0 ID: 0
Read mode : Secure with NO C2, accurate stream, disable cache
Read offset correction : 48
Overread into Lead-In and Lead-Out : No

Used output format : F:\Tools\DOS\audio\flac.exe (User Defined Encoder)
320 kBit/s
Additional command line options : %s

Other options :
Fill up missing offset samples with silence : Yes
Delete leading and trailing silent blocks : No
Installed external ASPI interface


Track 1
Filename F:\Encoded Music\Caldera - Caldera (1976) [FLAC]\01 - Guanacaste.wav

Pre-gap length 0:00:02.00

Peak level 92.8 %
Track quality 100.0 %
Test CRC B4EE24AF
Copy CRC B4EE24AF
Copy OK

Track 2
Filename F:\Encoded Music\Caldera - Caldera (1976) [FLAC]\02 - Coastin'.wav

Pre-gap length 0:00:02.13

Peak level 91.5 %
Track quality 100.0 %
Test CRC 857D2BAD
Copy CRC 857D2BAD
Copy OK

Track 3
Filename F:\Encoded Music\Caldera - Caldera (1976) [FLAC]\03 - Exaltation.wav

Pre-gap length 0:00:02.13

Peak level 95.4 %
Track quality 100.0 %
Test CRC 327681F8
Copy CRC 327681F8
Copy OK

Track 4
Filename F:\Encoded Music\Caldera - Caldera (1976) [FLAC]\04 - Synesthesia.wav

Pre-gap length 0:00:02.13

Peak level 96.5 %
Track quality 100.0 %
Test CRC 6BE2E239
Copy CRC 6BE2E239
Copy OK

Track 5
Filename F:\Encoded Music\Caldera - Caldera (1976) [FLAC]\05 - Out of the Blue.wav

Pre-gap length 0:00:02.13

Peak level 96.9 %
Track quality 100.0 %
Test CRC EA8054ED
Copy CRC EA8054ED
Copy OK

Track 6
Filename F:\Encoded Music\Caldera - Caldera (1976) [FLAC]\06 - El Juguete.wav

Pre-gap length 0:00:02.13

Peak level 92.5 %
Track quality 100.0 %
Test CRC C1D9E5F1
Copy CRC C1D9E5F1
Copy OK

No errors occured


End of status report




The Files Are Interchangeable

Thanks to the ripper/source - kyllingfot / Musicgate!

Visit My Blog

ADVERTISING » Click here to download Ebooks/Magazines for free « ADVERTISING


Posted By: methana Date: 13 Jun 2011 21:23:19
Otro album para el recuerdo de mis tiempos de juventud, Gracias Tiburon.

Nota: Hay un exelente grupo, me parece que son Holandeses, de nombre "Shivananda", si puedes encontrar algo de ellos, te lo recomiendo.

Saludos desde Chile.
Posted By: mitches Date: 14 Jun 2011 13:19:52
New to me. Thanks a lot!
Posted By: lucianocraveiro Date: 14 Jun 2011 21:12:23
Thanks tiburon for introduce me to this. Beautiful.
Posted By: OdioAlImperio Date: 14 Jun 2011 22:45:15
Thanks, again, Tiburon. OAI!
Posted By: fusiac Date: 15 Jun 2011 12:37:57
Thanks tiburon
I have a request also:
If you can find it could you post some early DAN SIEGEL albums before he went into smooth jazz ?
1980 Nite Ride, 1981 The Hot Shot, 1982 Dan Siegel, 1982 Oasis, 1983 Reflection, 1985 On The Edge, 1986 Short Stories.
Posted By: eisler444 Date: 15 Jun 2011 18:19:20
Спасибо!!!
Posted By: calisan Date: 16 Jun 2011 04:13:20
Maravilloso lo q¡ me faltaba! el audio digital! pues tengo los 4 LP de ellos y creo q' solo este y otro han salido en CD
Gracias tiburon!